<?xml version="1.0" standalone="no"?>
<!DOCTYPE svg PUBLIC "-//W3C//DTD SVG 1.1//EN" "http://www.w3.org/Graphics/SVG/1.1/DTD/svg11.dtd" >
<svg xmlns="http://www.w3.org/2000/svg" xmlns:xlink="http://www.w3.org/1999/xlink">
<metadata>
Created by FontForge 20100429 at Mon May 17 18:41:30 2010
 By Chris Lilley,,,
Hebrew layout intelligence copyright (c) 2003 &#38; 2007 Ralph Hancock (http://www.hancock.dircon.co.uk/) and John Hudson (http://www.tiro.com), and licensed under the MIT/X11 License. 

All other font software is copyright (c) 1997-2007, SIL International (http://www.sil.org/), and is licensed under the SIL Open Font License, version 1.1 (http://scripts.sil.org/OFL), with Reserved Font Names "SIL" and "Ezra". 

This Font Software is licensed under the SIL Open Font License, Version 1.0. See the license informaation in the font. The text of the license is also available at: http://scripts.sil.org/OFL .

This SVG version created with Fontographer by Chris Lilley. In accordance with the 
SIL Open Font License, version 1.1 (http://scripts.sil.org/OFL), the Reserved Font Names "SIL" and "Ezra"
are not used in this SVG version. 
</metadata>
<defs>
<font id="SVGHebrew" horiz-adv-x="0" >
  <font-face 
    font-family="SVGHebrew"
    font-weight="400"
    font-stretch="normal"
    units-per-em="2048"
    panose-1="2 0 4 0 0 0 0 0 0 0"
    ascent="1638"
    descent="-410"
    x-height="987"
    cap-height="1374"
    bbox="-309 -827 2476 2181"
    underline-thickness="20"
    underline-position="-113"
    unicode-range="U+000D-FEFF"
  />
<missing-glyph horiz-adv-x="1024" 
d="M128 0v1536h768v-1536h-768zM256 128h512v1280h-512v-1280z" />
    <glyph glyph-name=".notdef" horiz-adv-x="1024" 
d="M128 0v1536h768v-1536h-768zM256 128h512v1280h-512v-1280z" />
    <glyph glyph-name=".null" horiz-adv-x="1024" 
 />
    <glyph glyph-name="uni000D" unicode="&#xd;" horiz-adv-x="1024" 
 />
    <glyph glyph-name="space" unicode=" " horiz-adv-x="700" 
 />
    <glyph glyph-name="exclam" unicode="!" horiz-adv-x="887" 
d="M502 1243l-76 -878h-98l-74 878q-1 14 -1 26q0 132 124 132q126 0 126 -132q0 -12 -1 -26zM504 111q0 -52 -37.5 -89.5t-89.5 -37.5t-88.5 37t-36.5 90q0 51 36.5 88t88.5 37t89.5 -37t37.5 -88z" />
    <glyph glyph-name="quotedbl" unicode="&#x22;" horiz-adv-x="682" 
d="M594 1362l-72 -500h-33l-69 500q0 100 86 100q88 0 88 -100zM262 1362l-69 -500h-33l-72 500q0 100 88 100q86 0 86 -100z" />
    <glyph glyph-name="numbersign" unicode="#" horiz-adv-x="1522" 
d="M1397 862h-322l-98 -293h330v-102h-365l-174 -514l-102 33l161 481h-297l-174 -514l-102 35l164 479h-291v102h324l100 293h-330v105h365l164 483l104 -33l-156 -450h299l162 483l107 -33l-156 -450h287v-105zM961 862h-297l-99 -293h297z" />
    <glyph glyph-name="dollar" unicode="$" horiz-adv-x="1153" 
d="M1038 389q0 -169 -154 -286q-125 -95 -255 -103v-211h-94v211q-147 9 -193 13q-131 14 -221 40v348h104l37 -229q59 -72 273 -72v518q-381 88 -381 373q0 168 131 272q103 82 252 105v154h94v-148q164 0 348 -47v-323h-105l-32 217q-47 53 -211 53v-488q194 -58 270 -113
q137 -99 137 -284zM537 813v453q-193 -40 -193 -234q0 -148 193 -219zM850 350q0 174 -221 244v-485q221 39 221 241z" />
    <glyph glyph-name="percent" unicode="%" horiz-adv-x="1763" 
d="M1700 406q0 -191 -79 -307q-84 -124 -237 -124q-152 0 -237 124q-78 116 -78 307t78 306q84 124 237 124t237 -124q79 -115 79 -306zM1380 1374l-868 -1374h-129l870 1374h127zM694 971q0 -191 -77 -306q-84 -124 -236 -124q-153 0 -237 124q-78 115 -78 306t78 306
q84 124 237 124q152 0 236 -124q77 -115 77 -306zM1542 406q0 352 -158 352q-159 0 -159 -352q0 -353 159 -353q158 0 158 353zM537 971q0 352 -156 352q-162 0 -162 -352q0 -353 162 -353q156 0 156 353z" />
    <glyph glyph-name="ampersand" unicode="&#x26;" horiz-adv-x="1460" 
d="M1419 0h-377v49l-92 103q-110 -87 -175 -120q-112 -57 -240 -57q-177 0 -301.5 116.5t-124.5 289.5q0 246 274 360q-172 172 -172 314q0 152 111 249t278 97q155 0 258 -88t103 -221q0 -135 -95 -229q-67 -67 -207 -130l345 -371q99 127 114 240q1 10 -10.5 23.5
t-24.5 15.5l-110 16v86h420v-86l-148 -22q-48 -172 -174 -346l166 -191l182 -10v-88zM772 1079q0 94 -47 154q-52 67 -145 67q-82 0 -133.5 -55.5t-51.5 -136.5q0 -89 68 -177q25 -33 123 -128q186 93 186 276zM885 223l-422 459q-148 -104 -148 -254q0 -137 86 -228
t211 -91q139 0 273 114z" />
    <glyph glyph-name="quotesingle" unicode="'" horiz-adv-x="350" 
d="M262 1362l-69 -500h-33l-72 500q0 100 86 100q88 0 88 -100z" />
    <glyph glyph-name="parenleft" unicode="(" horiz-adv-x="1100" 
d="M1012 -373q-388 44 -578 372q-166 287 -166 755t166 755q191 329 578 371v-117q-267 -44 -388 -309q-112 -244 -112 -700q0 -457 112 -700q121 -266 388 -310v-117z" />
    <glyph glyph-name="parenright" unicode=")" horiz-adv-x="1100" 
d="M834 754q0 -468 -167 -755q-191 -328 -579 -372v117q267 44 388 310q112 243 112 700q0 456 -112 700q-121 265 -388 309v117q387 -42 579 -371q167 -288 167 -755z" />
    <glyph glyph-name="asterisk" unicode="*" horiz-adv-x="1032" 
d="M944 1315l-100 -127l-287 -17l-10 31l239 160zM598 1503l-76 -276h-33l-75 276l92 137zM776 797l-153 57l-103 266l25 21l225 -180zM467 1202l-10 -31l-289 17l-102 127l157 47zM492 1120l-103 -266l-153 -57l6 164l225 180z" />
    <glyph glyph-name="plus" unicode="+" horiz-adv-x="1706" 
d="M1462 551h-551v-551h-116v551h-551v117h551v549h116v-549h551v-117z" />
    <glyph glyph-name="comma" unicode="," horiz-adv-x="432" 
d="M387 150q0 -83 -92 -188q-82 -93 -115 -93q-11 0 -15.5 4t-4.5 18q0 9 23.5 41t23.5 68q0 83 -162 154q56 34 115 94q56 58 73 96q154 -84 154 -194z" />
    <glyph glyph-name="hyphen" unicode="-" horiz-adv-x="657" 
d="M565 416h-475v153h475v-153z" />
    <glyph glyph-name="period" unicode="." horiz-adv-x="592" 
d="M483 166q-120 -73 -188 -191q-68 118 -189 191q121 70 189 190q68 -120 188 -190z" />
    <glyph glyph-name="slash" unicode="/" horiz-adv-x="1026" 
d="M1024 1497l-891 -1599h-133l891 1599h133z" />
    <glyph glyph-name="zero" unicode="0" horiz-adv-x="1135" 
d="M1057 678q0 -307 -121 -496q-132 -207 -369 -207q-236 0 -367 207q-120 189 -120 496q0 305 120 494q131 206 367 206q237 0 369 -206q121 -189 121 -494zM844 678q0 600 -277 600q-274 0 -274 -600q0 -602 274 -602q277 0 277 602z" />
    <glyph glyph-name="one" unicode="1" horiz-adv-x="1135" 
d="M901 0h-684v90l207 8q43 2 43 45v1063l-313 -53v90l436 135h76v-1235q0 -43 45 -45l190 -8v-90z" />
    <glyph glyph-name="two" unicode="2" horiz-adv-x="1135" 
d="M1040 0h-944v135q412 342 506 442q199 210 199 398q0 138 -86 219q-80 76 -203 76q-58 0 -116 -21l-54 -22v-226q-41 -32 -98 -32q-121 0 -121 116q0 126 133 211q130 82 311 82q199 0 325 -105.5t126 -279.5q0 -188 -219 -411q-110 -112 -492 -412h598l37 174h98v-344z
" />
    <glyph glyph-name="three" unicode="3" horiz-adv-x="1135" 
d="M1040 385q0 -180 -152.5 -295t-375.5 -115q-189 0 -310 78q-106 68 -106 152q0 45 30.5 77.5t88.5 32.5q49 0 68 -14l61 -180q80 -43 174 -43q136 0 228 93q88 89 88 214q0 134 -102 202q-82 54 -202 54q-66 0 -122 -10v127q6 -2 51 -2q138 0 226 61q99 69 99 195
q0 120 -81 191q-75 65 -185 65q-99 0 -182 -49v-201q-53 -27 -90 -27q-44 0 -76 25q-41 32 -41 90q0 114 133 194q130 78 313 78q180 0 295 -90q119 -94 119 -250q0 -236 -309 -325q144 -7 243 -83q117 -90 117 -245z" />
    <glyph glyph-name="four" unicode="4" horiz-adv-x="1135" 
d="M1057 401h-172v-426h-191v426h-614v140l661 837h144v-839h172v-138zM694 539v581l-454 -581h454z" />
    <glyph glyph-name="five" unicode="5" horiz-adv-x="1135" 
d="M1044 438q0 -211 -145 -334q-152 -129 -424 -129q-152 0 -270 76q-113 72 -113 154q0 114 125 114q31 0 55 -8l78 -186q51 -51 156 -51q150 0 246 104q86 93 86 211q0 164 -99 252q-92 82 -245 82q-122 0 -324 -70v701h780v-170h-635v-383q-14 0 86.5 25.5t184.5 25.5
q212 0 335 -110t123 -304z" />
    <glyph glyph-name="six" unicode="6" horiz-adv-x="1135" 
d="M1057 463q0 -217 -144 -354q-139 -134 -348 -134q-219 0 -344 137q-141 154 -141 468q0 366 212 580q217 218 597 218v-125l-70 2q-197 6 -341 -127q-149 -139 -179 -374q148 129 338 129q188 0 304 -119t116 -301zM852 436q0 149 -76.5 232.5t-210.5 83.5t-272 -103
q-4 -43 -4 -110q0 -459 276 -459q140 0 217 103q70 95 70 253z" />
    <glyph glyph-name="seven" unicode="7" horiz-adv-x="1135" 
d="M1053 1241l-664 -1198v-68h-213l666 1209h-623l-31 -187h-104v357h969v-113z" />
    <glyph glyph-name="eight" unicode="8" horiz-adv-x="1135" 
d="M1055 369q0 -171 -139.5 -282.5t-348.5 -111.5q-221 0 -353 108t-132 282q0 229 287 335q-96 40 -159 111q-75 87 -75 197q0 171 119 272q118 98 313 98q185 0 307.5 -95.5t122.5 -242.5q0 -210 -243 -327q301 -110 301 -344zM813 1022q0 120 -73 189q-68 65 -173 65
q-102 0 -167.5 -64.5t-65.5 -156.5q0 -102 88 -177q77 -66 244 -128q147 106 147 272zM850 336q0 113 -106 184q-64 44 -295 135q-181 -99 -181 -276q0 -134 76 -212q79 -81 223 -81q128 0 207 73q76 71 76 177z" />
    <glyph glyph-name="nine" unicode="9" horiz-adv-x="1135" 
d="M1057 774q0 -365 -214 -580q-217 -219 -597 -219v125l69 -2q197 -5 341 128q150 138 182 374q-149 -129 -338 -129q-188 0 -304 119t-116 301q0 217 142 354q139 133 347 133q221 0 346 -136q142 -154 142 -468zM848 815q0 459 -279 459q-139 0 -214 -102
q-70 -95 -70 -254q0 -148 75.5 -232t208.5 -84q137 0 275 103q4 43 4 110z" />
    <glyph glyph-name="colon" unicode=":" horiz-adv-x="600" 
d="M438 850q0 -57 -40 -97t-97 -40t-96 40t-39 97q0 58 39 97.5t96 39.5t97 -40t40 -97zM438 121q0 -57 -40 -97t-97 -40t-96 40t-39 97t39 97t96 40q58 0 97.5 -40t39.5 -97z" />
    <glyph glyph-name="semicolon" unicode=";" horiz-adv-x="592" 
d="M475 645q-116 -67 -186 -188q-69 119 -189 188q118 68 189 191q72 -125 186 -191zM442 147q0 -82 -91 -186q-81 -92 -113 -92q-23 0 -23 22q0 9 22.5 41t22.5 68q0 84 -160 154q57 34 114 93t75 97q153 -84 153 -197z" />
    <glyph glyph-name="less" unicode="&#x3c;" horiz-adv-x="1706" 
d="M1442 76l-1178 481v105l1178 483v-127l-1000 -408l1000 -405v-129z" />
    <glyph glyph-name="equal" unicode="=" horiz-adv-x="1706" 
d="M1452 743h-1198v117h1198v-117zM1452 360h-1198v117h1198v-117z" />
    <glyph glyph-name="greater" unicode="&#x3e;" horiz-adv-x="1706" 
d="M1442 557l-1178 -481v129l1000 405l-1000 408v127l1178 -483v-105z" />
    <glyph glyph-name="question" unicode="?" horiz-adv-x="1071" 
d="M924 1069q0 -177 -141 -304q-89 -80 -263 -157v-233h-119v305q124 41 205 123q103 104 103 248q0 293 -301 293l-89 -218l-34 -2q-138 0 -138 115q0 84 82 142q92 67 254 67q191 0 314 -103q127 -106 127 -276zM596 113q0 -54 -39.5 -91.5t-93.5 -37.5t-91.5 38.5
t-37.5 92.5t37.5 92.5t91.5 38.5q55 0 94 -39t39 -94z" />
    <glyph glyph-name="at" unicode="@" horiz-adv-x="1917" 
d="M1776 764q0 -288 -173 -480q-152 -169 -327 -169q-160 0 -160 170q-168 -168 -295 -168q-113 0 -184.5 91t-71.5 243q0 230 157 396q153 161 351 161q100 0 201 -56l37 47h116q-10 -30 -141 -608q-8 -36 -8 -65q0 -95 84 -95q104 0 203 143q112 163 112 388
q0 272 -179 426q-160 137 -396 137q-348 0 -573.5 -227.5t-225.5 -571.5q0 -322 189 -525q197 -212 528 -212q268 0 541 152l30 -74q-337 -180 -620 -180q-341 0 -572 214q-243 226 -243 588q0 430 289 690q262 236 632 236q313 0 502 -167q197 -175 197 -484zM1204 805
q6 30 -30 72q-40 45 -91 45q-149 0 -242 -133q-89 -128 -89 -320q0 -221 161 -221q102 0 209 133z" />
    <glyph glyph-name="A" unicode="A" horiz-adv-x="1360" 
d="M1360 0h-488v88l119 10q9 1 16.5 14t4.5 21l-140 375h-475l-135 -369q-1 -3 -1 -6q0 -33 30 -35l121 -10v-88h-412v88l119 25l477 1278h154l475 -1248q9 -23 15 -29t28 -10l92 -16v-88zM834 606l-203 553l-197 -553h400z" />
    <glyph glyph-name="B" unicode="B" horiz-adv-x="1247" 
d="M1159 406q0 -223 -179 -327q-135 -79 -341 -79h-573v88l108 8q43 3 43 45v1092q0 42 -43 45l-108 8v88h548q461 0 461 -330q0 -240 -295 -315q157 0 258 -71q121 -85 121 -252zM854 1030q0 250 -315 250q-25 0 -69 -3t-48 -3v-518q53 -2 74 -2q193 0 279 72q79 66 79 204
zM936 389q0 270 -330 270q-41 0 -113 -6t-71 -6v-541q91 -6 127 -6q210 0 301 72q86 67 86 217z" />
    <glyph glyph-name="C" unicode="C" horiz-adv-x="1296" 
d="M1210 47q-180 -72 -409 -72q-330 0 -530 217q-185 201 -185 498q0 318 198 513.5t519 195.5q174 0 407 -72v-321h-123l-30 186q-5 33 -35 47q-95 45 -209 45q-218 0 -350 -147q-141 -156 -141 -441t137.5 -446.5t380.5 -161.5q101 0 166 27q32 13 38 41l48 223h118v-332z
" />
    <glyph glyph-name="D" unicode="D" horiz-adv-x="1430" 
d="M1346 690q0 -296 -163 -479q-187 -211 -548 -211h-569v88l108 8q45 3 45 45v1092q0 42 -45 45l-108 8v88h528q340 0 537 -165q215 -179 215 -519zM1114 686q0 590 -532 590h-158v-1178l168 2q522 6 522 586z" />
    <glyph glyph-name="E" unicode="E" horiz-adv-x="1198" 
d="M1130 0h-1064v88l108 8q45 3 45 45v1092q0 42 -45 45l-108 8v88h995v-305h-123l-29 168q-7 39 -37 39h-448v-510h311q32 0 37 35l19 141h104v-457h-104l-19 142q-5 37 -37 37h-311v-564h522q30 0 37 39l35 203h112v-342z" />
    <glyph glyph-name="F" unicode="F" horiz-adv-x="1110" 
d="M1059 1049h-121l-29 188q-6 37 -35 37h-438v-533h316q31 0 36 37l19 144h102v-461h-102l-19 143q-5 37 -36 37h-316v-500q0 -42 43 -45l137 -8v-88h-536v88l108 8q43 3 43 45v1092q0 42 -43 45l-125 8v88h996v-325z" />
    <glyph glyph-name="G" unicode="G" horiz-adv-x="1430" 
d="M1378 575l-104 -10q-43 -4 -43 -43v-473q-225 -74 -430 -74q-329 0 -529 215q-186 202 -186 500q0 324 199.5 516.5t541.5 192.5q166 0 402 -62v-331h-123l-33 184q-6 34 -41 49q-105 45 -213 45q-227 0 -361 -149q-139 -156 -139 -435q0 -291 143 -452
q139 -158 382 -158q55 0 120 11.5t60 11.5v409q0 40 -43 43l-137 10v89h534v-89z" />
    <glyph glyph-name="H" unicode="H" horiz-adv-x="1522" 
d="M1456 0h-516v88l117 8q43 3 43 45v529h-676v-529q0 -42 43 -45l117 -8v-88h-518v88l106 8q45 3 45 45v1092q0 40 -45 43l-106 8v90h518v-90l-117 -8q-43 -3 -43 -43v-461h676v461q0 40 -43 43l-117 8v90h516v-90l-106 -8q-45 -3 -45 -43v-1092q0 -42 45 -45l106 -8v-88z
" />
    <glyph glyph-name="I" unicode="I" horiz-adv-x="676" 
d="M608 0h-540v88l122 8q43 3 43 45v1092q0 40 -43 43l-122 8v90h540v-90l-125 -8q-43 -3 -43 -43v-1092q0 -42 43 -45l125 -8v-88z" />
    <glyph glyph-name="J" unicode="J" horiz-adv-x="981" 
d="M940 1286l-119 -8q-43 -3 -43 -45v-715q0 -267 -101 -399q-109 -144 -349 -144q-127 0 -277 50v350h123l45 -250q8 -45 94 -45q138 0 199 103t61 321v729q0 42 -43 45l-129 8v88h539v-88z" />
    <glyph glyph-name="K" unicode="K" horiz-adv-x="1307" 
d="M1307 0h-359v63l-381 547h-141l-2 -469q0 -42 45 -45l117 -8v-88h-520v88l108 8q43 3 43 45v1092q0 42 -43 45l-108 8v88h520v-88l-117 -8q-45 -3 -45 -45l2 -537h72l446 545q7 9 1 22q-6 12 -17 13l-105 10v88h434v-88l-139 -16l-418 -500l459 -672l148 -10v-88z" />
    <glyph glyph-name="L" unicode="L" horiz-adv-x="1077" 
d="M1051 0h-996v88l119 8q43 3 43 45v1092q0 42 -43 45l-119 8v88h523v-88l-109 -8q-45 -3 -45 -45v-1133h430q40 0 45 35l33 246h119v-381z" />
    <glyph glyph-name="M" unicode="M" horiz-adv-x="1784" 
d="M1722 0h-508v88l109 8q45 3 45 45v1129l-471 -1270h-102l-455 1251v-1110q0 -42 45 -45l117 -8v-88h-443v88l117 8q43 3 43 45v1092q0 42 -43 45l-117 8v88h459v-55l371 -1006l371 1000v61h462v-88l-110 -8q-45 -3 -45 -45v-1092q0 -42 45 -45l110 -8v-88z" />
    <glyph glyph-name="N" unicode="N" horiz-adv-x="1466" 
d="M1417 1286l-114 -8q-43 -3 -43 -45v-1233h-160l-762 1147v-1006q0 -42 43 -45l117 -8v-88h-443v88l117 8q45 3 45 45v1092q0 42 -45 45l-121 8v88h406v-51l682 -1030v940q0 42 -43 45l-117 8v88h438v-88z" />
    <glyph glyph-name="O" unicode="O" horiz-adv-x="1507" 
d="M1423 686q0 -304 -183 -508q-189 -211 -484 -211q-298 0 -486 206q-184 203 -184 515q0 307 181 510q188 211 487 211q298 0 487 -213q182 -205 182 -510zM1186 684q0 264 -107 429q-117 179 -323 179q-212 0 -328 -180q-106 -163 -106 -424q0 -262 106 -427
q116 -181 324 -181q211 0 328 181q106 164 106 423z" />
    <glyph glyph-name="P" unicode="P" horiz-adv-x="1157" 
d="M1106 961q0 -217 -156 -337q-145 -111 -379 -110q-108 1 -145 8v-381q0 -42 43 -45l135 -8v-88h-538v88l108 8q45 3 45 45v1092q0 42 -45 45l-123 8v88h490q296 0 428 -93q137 -97 137 -320zM893 958q0 316 -363 316q-36 0 -104 -2v-645q-1 0 45.5 -5.5t69.5 -5.5
q352 -3 352 342z" />
    <glyph glyph-name="Q" unicode="Q" horiz-adv-x="1520" 
d="M1440 686q0 -279 -150 -468q-153 -191 -416 -234q3 -244 283 -244q98 0 197 22v-88q-159 -34 -303 -34q-396 0 -396 340q-253 36 -407 220q-162 192 -162 486q0 308 183 512q190 211 491 211q306 0 496 -210q184 -203 184 -513zM1198 686q0 260 -105 425
q-117 183 -331 183q-213 0 -330 -180q-106 -163 -106 -424q0 -257 108 -423q119 -181 328 -181q211 0 329 179q107 164 107 421z" />
    <glyph glyph-name="R" unicode="R" horiz-adv-x="1331" 
d="M1331 2q-144 -16 -135 -16q-164 0 -230 72t-112 233q-48 170 -92 227q-72 94 -244 94q-26 0 -60.5 -2t-31.5 -2v-467q0 -42 43 -45l109 -8v-88h-510v88l106 8q45 3 45 45v1092q0 42 -45 45l-106 8v88h534q502 0 502 -364q0 -267 -336 -342q124 -30 176 -90
q66 -77 102.5 -227.5t86.5 -207.5t198 -57v-84zM881 1001q0 273 -361 273h-94v-561q82 -2 102 -2q178 0 262 63q91 69 91 227z" />
    <glyph glyph-name="S" unicode="S" horiz-adv-x="1085" 
d="M997 385q0 -171 -127 -283q-145 -127 -415 -127q-205 0 -365 68v363h129l27 -232q4 -33 35 -45q98 -39 206 -39q134 0 217.5 61.5t83.5 172.5q0 107 -124 192q-41 28 -236 121q-158 75 -220 136q-95 92 -95 233q0 179 135 288q131 105 338 105q165 0 360 -62v-319h-117
l-30 196q-3 21 -31 35q-58 39 -180 39t-193 -64t-71 -169q0 -163 284 -271q200 -76 287 -158q102 -96 102 -241z" />
    <glyph glyph-name="T" unicode="T" horiz-adv-x="1227" 
d="M1194 1047h-121l-29 192q-5 35 -34 35h-293v-1133q0 -42 43 -45l131 -8v-88h-555v88l131 8q43 3 43 45v1133h-295q-30 0 -35 -35l-28 -192h-119v327h1161v-327z" />
    <glyph glyph-name="U" unicode="U" horiz-adv-x="1442" 
d="M1397 1286l-117 -8q-43 -3 -43 -45v-778q0 -480 -528 -480q-510 0 -510 480v778q0 42 -43 45l-109 8v88h531v-88l-117 -8q-43 -3 -43 -45v-725q0 -197 67 -287q81 -108 281 -108q198 0 281 112q69 93 69 283v725q0 42 -45 45l-117 8v88h443v-88z" />
    <glyph glyph-name="V" unicode="V" horiz-adv-x="1364" 
d="M1343 1286l-118 -22l-459 -1274h-156l-469 1276l-121 20v88h490v-88l-121 -10q-10 -1 -16 -14t-2 -23l360 -999l346 995q4 12 -5 26t-23 15l-113 10v88h407v-88z" />
    <glyph glyph-name="W" unicode="W" horiz-adv-x="1907" 
d="M1886 1286l-125 -24l-313 -1272h-150l-342 1112l-335 -1112h-148l-334 1272l-119 24v88h469v-88l-122 -12q-31 -3 -21 -41l244 -911l321 1052h158l330 -1075l227 934q9 37 -29 41l-129 12v88h418v-88z" />
    <glyph glyph-name="X" unicode="X" horiz-adv-x="1296" 
d="M1278 0h-526v88l118 12q29 3 29 29q0 7 -4 14l-272 428l-316 -434q-25 -35 25 -39l123 -10v-88h-435v88l123 25l412 565l-373 586l-135 24v86h514v-86l-104 -10q-48 -5 -25 -41l250 -387l276 381q6 8 6 16q0 23 -28 27l-105 14v86h429v-86l-132 -20l-380 -525l403 -630
l127 -25v-88z" />
    <glyph glyph-name="Y" unicode="Y" horiz-adv-x="1280" 
d="M1260 1288l-111 -20l-412 -684v-443q0 -42 43 -45l131 -8v-88h-551v88l127 8q45 3 45 45v412l-393 711l-119 24v86h486v-86l-103 -10q-44 -4 -24 -41l287 -537l317 531q4 7 4 14q0 25 -29 29l-114 14v86h416v-86z" />
    <glyph glyph-name="Z" unicode="Z" horiz-adv-x="1202" 
d="M1110 0h-1018v90l762 1182h-532q-29 0 -35 -35l-31 -190h-121v327h965v-94l-764 -1176h584q29 0 34 37l35 238h121v-379z" />
    <glyph glyph-name="bracketleft" unicode="[" horiz-adv-x="655" 
d="M586 -698h-412v2384h412v-44h-262v-2297h262v-43z" />
    <glyph glyph-name="backslash" unicode="\" horiz-adv-x="1026" 
d="M1024 -102h-131l-893 1599h135z" />
    <glyph glyph-name="bracketright" unicode="]" horiz-adv-x="655" 
d="M481 -698h-411v43h262v2297h-262v44h411v-2384z" />
    <glyph glyph-name="asciicircum" unicode="^" horiz-adv-x="1962" 
d="M1516 23h-130l-405 999l-408 -999h-127l484 1177h104z" />
    <glyph glyph-name="underscore" unicode="_" horiz-adv-x="1024" 
d="M1024 -483h-1024v133h1024v-133z" />
    <glyph glyph-name="grave" unicode="`" horiz-adv-x="717" 
d="M475 1128h-117l-311 199q-47 30 -47 82q0 92 94 92q60 0 107 -55z" />
    <glyph glyph-name="a" unicode="a" horiz-adv-x="1049" 
d="M1024 0h-307l-27 121q-190 -137 -338 -137q-115 0 -188 69q-78 74 -78 199q0 128 101 200q129 92 503 173v88q0 202 -186 202q-81 0 -146 -26v-178h-149q-76 0 -76 59q0 117 137 183q119 57 289 57q324 0 324 -305v-574q0 -42 43 -45l98 -6v-80zM690 193v354
q-251 -63 -339 -137q-62 -54 -62 -144q0 -67 40 -112q42 -50 113 -50q101 0 248 89z" />
    <glyph glyph-name="b" unicode="b" horiz-adv-x="1126" 
d="M1057 541q0 -244 -139 -386q-152 -155 -447 -155h-295v1362h-156v68l263 79h84v-575q159 76 282 76q193 0 305 -140q103 -130 103 -329zM850 500q0 389 -315 389q-79 0 -168 -31v-760q-2 0 37 -1t63 -1q190 0 282 90q101 98 101 314z" />
    <glyph glyph-name="c" unicode="c" horiz-adv-x="963" 
d="M891 84q-187 -100 -346 -100q-213 0 -341 140t-128 363q0 247 148 391q137 132 345 132q140 0 227 -53q91 -55 91 -152q0 -57 -35.5 -88t-85.5 -31q-52 0 -102 33v180q-44 25 -86 25q-135 0 -214 -114.5t-79 -295.5q0 -178 86 -286q91 -115 254 -115q131 0 266 88v-117z
" />
    <glyph glyph-name="d" unicode="d" horiz-adv-x="1151" 
d="M1110 0h-324v109q-164 -125 -317 -125q-192 0 -299 155q-94 134 -94 328q0 225 129 376q143 167 393 167q96 0 188 -23v375h-155v68l264 79h84v-1378q0 -42 43 -45l88 -6v-80zM786 186v697q-85 30 -174 30q-152 0 -242.5 -112.5t-90.5 -298.5q0 -171 77 -273
q80 -106 219 -106q109 0 211 63z" />
    <glyph glyph-name="e" unicode="e" horiz-adv-x="1014" 
d="M940 102q-189 -118 -389 -118q-201 0 -330 121q-145 135 -145 378q0 237 135 382t346 145q185 0 287 -118q96 -111 96 -300q0 -39 -2 -57h-664q0 -181 72 -291q88 -135 270 -135q147 0 324 118v-125zM735 627v45q0 107 -48 170q-53 69 -150 69q-103 0 -173.5 -77
t-78.5 -207h450z" />
    <glyph glyph-name="f" unicode="f" horiz-adv-x="668" 
d="M797 1401q0 -84 -95 -111q-5 5 -95.5 69t-92.5 66q-116 -60 -119 -309l-2 -155h254v-103h-254v-727q0 -43 43 -45l121 -6v-80h-498v80l101 6q43 3 43 45v727h-131v70l131 37q0 200 69 333q118 226 349 226q84 0 132 -37q44 -34 44 -86z" />
    <glyph glyph-name="g" unicode="g" horiz-adv-x="1085" 
d="M1051 850h-205q55 -88 55 -184q0 -148 -121 -239q-113 -86 -280 -86q-21 0 -41 1q-41 -66 -17 -137q210 -21 228 -35q327 -50 327 -252q0 -147 -155.5 -254.5t-376.5 -107.5q-182 0 -283.5 70.5t-101.5 195.5q0 93 53 159q58 70 164 89q-21 63 -21 94q0 86 103 192
q-108 24 -178 103q-76 86 -76 205q0 160 113 253t299 93q107 0 237 -60h277v-100zM707 678q0 102 -49 172q-54 76 -142 76q-87 0 -140.5 -66.5t-53.5 -183.5q0 -108 49 -176q52 -74 145 -74q89 0 142 74q49 69 49 178zM821 -137q0 66 -37 99t-139.5 51.5l-224.5 41.5
q-156 -56 -156 -192q0 -83 65 -142q74 -69 203 -69q136 0 217 69q72 60 72 142z" />
    <glyph glyph-name="h" unicode="h" horiz-adv-x="1171" 
d="M1135 0h-455v80l84 6q45 3 45 45v528q0 203 -203 203q-114 0 -221 -59v-672q0 -42 41 -45l88 -6v-80h-463v80l99 6q43 3 43 45v1231h-154v68l262 79h84v-624q205 125 336 125q124 0 197 -75q79 -81 79 -233v-571q0 -42 45 -45l93 -6v-80z" />
    <glyph glyph-name="i" unicode="i" horiz-adv-x="621" 
d="M446 1323q0 -53 -36 -90t-88 -37t-89.5 37.5t-37.5 89.5t37.5 88.5t89.5 36.5t88 -36.5t36 -88.5zM551 0h-481v80l100 6q43 3 43 45v731h-141v70l250 78h81v-879q0 -43 43 -45l105 -6v-80z" />
    <glyph glyph-name="j" unicode="j" horiz-adv-x="631" 
d="M436 1323q0 -52 -36.5 -89.5t-88.5 -37.5t-89.5 37.5t-37.5 89.5t37.5 88.5t89.5 36.5t88.5 -36.5t36.5 -88.5zM414 156q0 -286 -80 -410q-124 -192 -340 -192q-156 0 -156 114q0 88 88 119l199 -137q98 56 98 332v872h-145v68l252 77h84v-843z" />
    <glyph glyph-name="k" unicode="k" horiz-adv-x="1104" 
d="M1083 0h-317v72l-266 393h-115v-334q0 -42 43 -45l88 -6v-80h-465v80l101 6q43 3 43 45v1231h-156v68l262 79h84v-985h41l301 342q8 9 3 21q-5 13 -19 14l-84 8v78h397v-78l-131 -14l-270 -291l352 -512l108 -12v-80z" />
    <glyph glyph-name="l" unicode="l" horiz-adv-x="608" 
d="M553 0h-498v80l109 6q14 1 29.5 15t15.5 28v1233h-156v68l262 79h84v-1380q0 -14 14.5 -28t28.5 -15l111 -6v-80z" />
    <glyph glyph-name="m" unicode="m" horiz-adv-x="1751" 
d="M1714 0h-461v80l84 6q43 3 43 45v522q0 209 -182 209q-103 0 -217 -59v-672q0 -42 43 -45l86 -6v-80h-448v80l86 6q43 3 43 45v533q0 198 -181 198q-115 0 -219 -59v-672q0 -42 43 -45l86 -6v-80h-463v80l101 6q43 3 43 45v723h-142v68l248 77h84v-114q208 125 334 125
q153 0 225 -140q224 140 355 140q146 0 215 -104q53 -80 53 -208v-567q0 -42 43 -45l98 -6v-80z" />
    <glyph glyph-name="n" unicode="n" horiz-adv-x="1182" 
d="M1130 0h-452v80l86 6q43 3 43 45v531q0 200 -197 200q-107 0 -225 -59v-672q0 -42 43 -45l86 -6v-80h-463v80l101 6q43 3 43 45v723h-144v68l250 77h84v-114q219 125 338 125q274 0 274 -314v-565q0 -42 43 -45l90 -6v-80z" />
    <glyph glyph-name="o" unicode="o" horiz-adv-x="1122" 
d="M1051 494q0 -222 -133 -364q-136 -146 -357 -146t-355 144q-130 141 -130 366t131 368q135 148 358 148t357 -150q129 -143 129 -366zM838 496q0 179 -68 295q-75 127 -207 127q-135 0 -207 -127q-65 -114 -65 -295q0 -178 67 -293q74 -127 205 -127q134 0 208 126
q67 114 67 294z" />
    <glyph glyph-name="p" unicode="p" horiz-adv-x="1149" 
d="M1079 526q0 -243 -138.5 -387.5t-379.5 -144.5q-68 0 -182 18v-327q0 -39 45 -43l121 -11v-77h-498v77l98 11q43 5 43 43v1169h-141v68l250 77h82v-114q161 125 309 125q165 0 275 -128q116 -135 116 -356zM874 498q0 164 -72 264q-77 106 -214 106q-95 0 -209 -61v-686
q88 -33 166 -33q160 0 249 125q80 112 80 285z" />
    <glyph glyph-name="q" unicode="q" horiz-adv-x="1110" 
d="M1100 -446h-496v77l121 11q43 4 43 43v389q-164 -80 -287 -80q-185 0 -297 135q-108 132 -108 340q0 252 157 397.5t435 145.5q151 0 290 -33v-1294q0 -38 43 -43l99 -11v-77zM768 143v754q-94 21 -141 21q-164 0 -256 -114q-88 -111 -88 -302q0 -171 72 -273
q80 -114 237 -114q88 0 176 28z" />
    <glyph glyph-name="r" unicode="r" horiz-adv-x="811" 
d="M791 778h-80q-49 56 -111 56q-94 0 -205 -127v-576q0 -43 43 -45l135 -6v-80h-512v78l101 8q43 3 43 45v723h-148v68l254 77h84v-194q88 97 122 127q87 78 149 78q71 0 125 -29v-203z" />
    <glyph glyph-name="s" unicode="s" horiz-adv-x="838" 
d="M760 297q0 -150 -103.5 -232.5t-287.5 -82.5q-172 0 -285 45v274h104l25 -176q78 -51 182 -51q84 0 136 47q49 44 49 108q0 77 -66 128q-35 26 -184 98q-121 58 -172 111q-60 62 -60 149q0 138 97 217.5t272 79.5q158 0 262 -47v-242h-106l-17 145q-60 47 -155 47
q-166 0 -166 -137q0 -67 49 -111q44 -39 178 -100q122 -55 178 -110q70 -68 70 -160z" />
    <glyph glyph-name="t" unicode="t" horiz-adv-x="696" 
d="M684 43q-141 -49 -278 -49q-118 0 -169 46t-51 165v653h-131v68l140 65l92 197h90v-227h289v-103h-289v-545q0 -117 41 -163q37 -41 123 -41q74 0 143 16v-82z" />
    <glyph glyph-name="u" unicode="u" horiz-adv-x="1165" 
d="M1122 0h-323v117q-174 -133 -330 -133q-283 0 -283 323v555h-143v70l252 78h84v-664q0 -223 196 -223q118 0 224 53v686h-144v70l250 78h82v-879q0 -42 45 -45l90 -6v-80z" />
    <glyph glyph-name="v" unicode="v" horiz-adv-x="1083" 
d="M1063 909l-109 -12l-358 -897h-133l-330 897l-113 12v78h453v-78l-98 -6q-17 -1 -27 -14.5t-4 -30.5l229 -643l252 643q6 16 -2.5 30t-25.5 15l-92 6v78h358v-78z" />
    <glyph glyph-name="w" unicode="w" horiz-adv-x="1604" 
d="M1583 909l-104 -12l-281 -897h-145l-242 766l-270 -766h-146l-262 897l-113 12v78h449v-78l-96 -6q-42 -3 -31 -45l170 -639l264 768h146l237 -768l189 639q13 42 -29 45l-94 6v78h358v-78z" />
    <glyph glyph-name="x" unicode="x" horiz-adv-x="1051" 
d="M1030 0h-442v80l71 8q13 2 19 14q5 12 -2 23l-176 262l-201 -262q-8 -10 -4 -23q5 -13 18 -14l101 -8v-80h-389v80l118 16l293 381l-280 414l-121 18v78h452v-78l-73 -10q-14 -2 -20 -14q-6 -13 1 -23l160 -231l180 231q8 10 3 22q-6 13 -19 15l-88 10v78h370v-78
l-112 -18l-273 -352l302 -443l112 -16v-80z" />
    <glyph glyph-name="y" unicode="y" horiz-adv-x="1085" 
d="M1065 909l-107 -12l-393 -960q-89 -217 -176 -304q-79 -79 -178 -79q-69 0 -111 36q-39 33 -39 82q0 68 66 123l192 -88q93 93 162 295l-348 895l-113 12v78h453v-78l-98 -6q-33 -2 -33 -33q0 -6 2 -12l238 -606l243 606q6 15 -2.5 29.5t-25.5 15.5l-97 6v78h365v-78z
" />
    <glyph glyph-name="z" unicode="z" horiz-adv-x="973" 
d="M899 0h-807v109l543 782h-356q-35 0 -41 -43l-21 -152h-104v291h757v-84l-561 -805h414q13 0 28 16.5t17 32.5l20 162h111v-309z" />
    <glyph glyph-name="braceleft" unicode="{" horiz-adv-x="1278" 
d="M1098 -655q-347 0 -457 131q-78 92 -98 247q-8 67 -8 291q0 171 -7 231q-14 140 -67 199q-48 55 -141 71q-50 9 -162 9v140q126 1 185 15q75 18 118 66q53 60 67 200q7 60 7 231q0 220 8 289q20 154 98 247q109 131 457 131v-123q-194 0 -267 -90q-48 -60 -59 -195
q-4 -48 -4 -251q0 -305 -76 -416q-84 -124 -276 -172q193 -52 276 -176q76 -113 76 -416q0 -201 4 -251q12 -135 59 -195q70 -88 267 -88v-125z" />
    <glyph glyph-name="bar" unicode="|" horiz-adv-x="1024" 
d="M584 -483h-142v2048h142v-2048z" />
    <glyph glyph-name="braceright" unicode="}" horiz-adv-x="1278" 
d="M1120 524q-113 0 -162 -9q-92 -16 -141 -71q-53 -59 -68 -199q-6 -58 -6 -231q0 -224 -8 -291q-20 -155 -98 -247q-110 -131 -457 -131v125q199 0 269 88q47 60 59 195q4 50 4 251q0 306 74 416q84 125 278 176q-194 48 -278 172q-74 108 -74 416q0 203 -4 251
q-11 135 -59 195q-73 90 -269 90v123q348 0 457 -131q78 -93 98 -247q8 -69 8 -289q0 -173 6 -231q15 -140 68 -200q44 -49 118 -66q59 -14 185 -15v-140z" />
    <glyph glyph-name="asciitilde" unicode="~" horiz-adv-x="1706" 
d="M1530 627q-209 -144 -385 -144q-95 0 -289.5 69t-302.5 69q-156 0 -375 -160v133q202 145 389 145q102 0 297.5 -68.5t282.5 -68.5q165 0 383 158v-133z" />
    <glyph glyph-name="uni00A0" unicode="&#xa0;" horiz-adv-x="700" 
 />
    <glyph glyph-name="exclamdown" unicode="&#xa1;" horiz-adv-x="692" 
d="M473 1274q0 -52 -36.5 -88.5t-88.5 -36.5t-89.5 36.5t-37.5 88.5t37.5 89.5t89.5 37.5t88.5 -37.5t36.5 -89.5zM471 141q1 -14 1 -26q0 -131 -124 -131q-126 0 -126 131q0 12 1 26l76 879h98z" />
    <glyph glyph-name="cent" unicode="&#xa2;" horiz-adv-x="1153" 
d="M991 47q-11 -11 -78 -26q-94 -21 -217 -21v-203h-98v207q-207 23 -327.5 162t-120.5 350q0 204 123 344t325 168v209h98v-201q139 0 295 -51v-301h-98l-29 178q-6 36 -24 43q-50 29 -144 31v-838q80 2 144 29q14 7 24 33l27 196h100v-309zM598 104v826q-96 -22 -166 -116
q-86 -116 -86 -292q0 -174 75 -288q68 -104 177 -130z" />
    <glyph glyph-name="sterling" unicode="&#xa3;" horiz-adv-x="1153" 
d="M1057 1180q0 -49 -38 -83t-89 -34q-27 0 -74 10v205q-54 16 -92 16q-275 0 -275 -405q0 -84 5 -164h380v-102h-380q7 -321 -218 -467q132 12 170 12h607v-168h-973v125q230 59 223 399q4 7 -2 99h-143v102h141q-2 105 -2 162q0 298 178 432q104 78 258 78q117 0 210 -50
q114 -60 114 -167z" />
    <glyph glyph-name="currency" unicode="&#xa4;" horiz-adv-x="1589" 
d="M1481 539l-95 -95l-266 267q-143 -111 -323 -111q-179 0 -328 113l-264 -269l-94 95l266 266q-115 144 -115 330q0 180 111 323l-262 264l94 93l260 -263q143 115 332 115q186 0 327 -113l262 261l95 -93l-262 -262q110 -143 110 -325q0 -189 -115 -332zM1198 1135
q0 165 -117.5 283t-283.5 118q-168 0 -286 -117.5t-118 -283.5q0 -168 118 -286t286 -118q166 0 283.5 118t117.5 286z" />
    <glyph glyph-name="yen" unicode="&#xa5;" horiz-adv-x="1221" 
d="M1200 1288l-115 -26l-219 -388h289v-90h-340l-119 -209h459v-90h-457v-344q0 -40 54 -45l118 -10v-86h-534v86l121 10q51 4 51 45v344h-442v90h438l-111 209h-327v90h278l-203 390l-121 24v86h459v-86l-88 -14q-43 -7 -24 -45l270 -529l297 527q21 37 -27 45l-98 16v86
h391v-86z" />
    <glyph glyph-name="section" unicode="&#xa7;" horiz-adv-x="1024" 
d="M903 627q0 -113 -77 -207q-69 -85 -171 -125q211 -98 211 -270q0 -138 -107.5 -226t-273.5 -88q-165 0 -315 66v268h102l11 -63l18 -121q27 -18 72 -33q63 -21 121 -21q92 0 151.5 45t59.5 121q0 126 -340 279q-244 110 -244 334q0 125 71 206q53 61 170 115
q-204 102 -204 262q0 301 397 301q176 0 285 -49v-266h-97l-20 166q-108 59 -193 59q-91 0 -147.5 -48.5t-56.5 -123.5q0 -64 86 -125q56 -40 211 -114q280 -134 280 -342zM743 575q0 172 -282 289q-89 -31 -139 -98q-46 -61 -46 -133q0 -90 72 -160q66 -63 223 -137
q57 29 108 91q64 76 64 148z" />
    <glyph glyph-name="dieresis" unicode="&#xa8;" horiz-adv-x="647" 
d="M647 1313q0 -47 -32 -81t-78 -34t-79.5 34.5t-33.5 80.5q0 43 35 77.5t78 34.5q46 0 78 -33t32 -79zM223 1313q0 -46 -33 -80.5t-79 -34.5q-44 0 -77.5 34t-33.5 79t33.5 79.5t77.5 34.5q46 0 79 -33t33 -79z" />
    <glyph glyph-name="copyright" unicode="&#xa9;" horiz-adv-x="1831" 
d="M1706 696q0 -328 -230.5 -560t-557.5 -232q-324 0 -555.5 232t-231.5 558q0 328 231 560.5t558 232.5q328 0 557 -233.5t229 -557.5zM1618 694q0 291 -204.5 499t-493.5 208q-290 0 -495.5 -207.5t-205.5 -499.5q0 -290 205 -497t494 -207t494.5 207t205.5 497zM1241 260
q-147 -49 -291 -49q-232 0 -371 145q-130 135 -130 338q0 214 138 348t365 134q113 0 289 -52v-243h-92l-31 155q-64 43 -145 43q-138 0 -233 -100q-103 -107 -103 -281q0 -179 98 -290q90 -103 217 -103q87 0 170 39l29 174h90v-258z" />
    <glyph glyph-name="ordfeminine" unicode="&#xaa;" horiz-adv-x="711" 
d="M686 784h-205l-18 72q-128 -80 -227 -80q-77 0 -126 41q-53 44 -53 119q0 80 78 124q85 49 328 97v55q0 121 -125 121q-42 0 -98 -16v-107h-101q-49 0 -49 35q0 70 93 111q81 35 194 35q215 0 215 -185v-344q0 -23 35 -26l59 -5v-47zM680 623h-617v61h617v-61zM463 899
v211q-170 -38 -228 -81q-42 -31 -42 -85q0 -40 28 -67t76 -27q68 0 166 49z" />
    <glyph glyph-name="guillemotleft" unicode="&#xab;" horiz-adv-x="1159" 
d="M1053 168l-437 356v211l437 357v-187l-301 -274l301 -283v-180zM537 168l-437 356v211l437 357v-187l-304 -274l304 -283v-180z" />
    <glyph glyph-name="logicalnot" unicode="&#xac;" horiz-adv-x="1024" 
d="M949 496h-155v446h-721v160h876v-606z" />
    <glyph glyph-name="registered" unicode="&#xae;" horiz-adv-x="1831" 
d="M1706 694q0 -327 -231.5 -558.5t-559.5 -231.5q-323 0 -553.5 231.5t-230.5 558.5q0 328 231 560.5t558 232.5q323 0 554.5 -232.5t231.5 -560.5zM1618 694q0 293 -204.5 500t-493.5 207t-495 -206.5t-206 -504.5q0 -288 204.5 -494t494.5 -206t495 207t205 497z
M1427 268q-60 -10 -118 -10q-116 0 -162.5 47.5t-80.5 152.5q-36 110 -67 148q-51 62 -174 62q-19 0 -43.5 -1t-23.5 -1v-306q0 -26 30 -28l78 -6v-58h-362v58l78 6q30 2 30 28v713q0 27 -30 29l-78 6v57h381q358 0 358 -237q0 -172 -239 -223q88 -20 126 -60
q47 -50 72 -147.5t62 -135.5t163 -38v-56zM1083 922q0 180 -256 180h-69v-369q62 -2 76 -2q249 0 249 191z" />
    <glyph glyph-name="macron" unicode="&#xaf;" horiz-adv-x="616" 
d="M616 1198h-616v131h616v-131z" />
    <glyph glyph-name="degree" unicode="&#xb0;" horiz-adv-x="676" 
d="M623 1171q0 -118 -83.5 -201t-201.5 -83t-201.5 83t-83.5 201t83.5 200.5t201.5 82.5t201.5 -82.5t83.5 -200.5zM541 1171q0 83 -60 142t-143 59t-143 -59t-60 -142t60 -142.5t143 -59.5t143 59.5t60 142.5z" />
    <glyph glyph-name="plusminus" unicode="&#xb1;" horiz-adv-x="1706" 
d="M1452 719h-539v-344h-118v344h-541v117h541v344h118v-344h539v-117zM1452 41h-1198v117h1198v-117z" />
    <glyph glyph-name="acute" unicode="&#xb4;" horiz-adv-x="717" 
d="M717 1409q0 -52 -47 -82l-312 -199h-116l272 318q47 55 109 55q94 0 94 -92z" />
    <glyph glyph-name="uni00B5" unicode="&#xb5;" horiz-adv-x="1137" 
d="M1094 299q0 -77 -52 -174q-78 -145 -221 -145q-83 0 -123 69q-33 57 -30 144q-91 -216 -281 -216q-95 0 -155 62q-56 59 -66 156q-6 -30 -72 -451q-26 -162 -96 -162q-84 0 -84 78q0 45 14 96q114 411 265 1129h161l-106 -510q-10 -48 -10 -88q0 -172 155 -172
q191 0 242 237l115 533h163l-122 -578q-9 -45 -9 -80q0 -110 88 -110q66 0 107 55q20 27 61 125q15 37 33 37q23 0 23 -35z" />
    <glyph glyph-name="paragraph" unicode="&#xb6;" horiz-adv-x="1274" 
d="M1202 1665l-162 -27v-1845h-127v1858h-200v-916q-311 0 -463 102q-180 121 -180 406q0 280 160 403q147 113 454 113h518v-94z" />
    <glyph glyph-name="periodcentered" unicode="&#xb7;" horiz-adv-x="786" 
d="M694 891q0 -126 -87.5 -213.5t-213.5 -87.5t-213.5 87.5t-87.5 213.5t87.5 214.5t213.5 88.5t213.5 -88.5t87.5 -214.5z" />
    <glyph glyph-name="cedilla" unicode="&#xb8;" horiz-adv-x="473" 
d="M473 -266q0 -93 -65.5 -144t-171.5 -51q-67 0 -152 21v80q75 -17 123 -17q133 0 133 84q0 76 -96 76q-19 0 -47 -12v229h79v-129q56 8 48 8q149 0 149 -145z" />
    <glyph glyph-name="ordmasculine" unicode="&#xba;" horiz-adv-x="756" 
d="M707 1081q0 -133 -90 -221t-238 -88t-238 88t-90 221q0 139 89 224.5t241 85.5q149 0 240 -91q86 -87 86 -219zM692 623h-626v61h626v-61zM561 1081q0 107 -45 176q-49 76 -137 76q-90 0 -140 -76q-44 -68 -44 -176q0 -106 46 -176q50 -76 138 -76q90 0 139 75
q43 68 43 177z" />
    <glyph glyph-name="guillemotright" unicode="&#xbb;" horiz-adv-x="1159" 
d="M1061 524l-438 -356v184l303 277l-303 280v183l438 -357v-211zM541 524l-435 -356v184l302 277l-302 280v183l435 -357v-211z" />
    <glyph glyph-name="questiondown" unicode="&#xbf;" horiz-adv-x="995" 
d="M686 1272q0 -52 -36.5 -88.5t-88.5 -36.5t-89.5 36.5t-37.5 88.5q0 53 37 90t90 37q52 0 88.5 -37.5t36.5 -89.5zM866 184q0 -80 -78 -136q-88 -64 -243 -64q-187 0 -306 98q-122 101 -122 266q0 289 389 447v227h115v-297q-297 -100 -297 -358q0 -283 292 -283l82 211
h37q131 0 131 -111z" />
    <glyph glyph-name="Agrave" unicode="&#xc0;" horiz-adv-x="1360" 
d="M778 1493h-114l-312 199q-49 31 -49 82q0 92 96 92q59 0 107 -56zM1360 0h-488v88l119 10q9 1 16.5 14t4.5 21l-140 375h-475l-135 -369q-1 -3 -1 -6q0 -33 30 -35l121 -10v-88h-412v88l119 25l477 1278h154l475 -1248q9 -23 15 -29t28 -10l92 -16v-88zM834 606l-203 553
l-197 -553h400z" />
    <glyph glyph-name="Aacute" unicode="&#xc1;" horiz-adv-x="1360" 
d="M1028 1774q0 -52 -47 -82l-309 -199h-117l272 317q48 56 109 56q92 0 92 -92zM1360 0h-488v88l119 10q9 1 16.5 14t4.5 21l-140 375h-475l-135 -369q-1 -3 -1 -6q0 -33 30 -35l121 -10v-88h-412v88l119 25l477 1278h154l475 -1248q9 -23 15 -29t28 -10l92 -16v-88z
M834 606l-203 553l-197 -553h400z" />
    <glyph glyph-name="Acircumflex" unicode="&#xc2;" horiz-adv-x="1360" 
d="M993 1487h-123l-211 205l-213 -205h-122l258 348h153zM1360 0h-488v88l119 10q9 1 16.5 14t4.5 21l-140 375h-475l-135 -369q-1 -3 -1 -6q0 -33 30 -35l121 -10v-88h-412v88l119 25l477 1278h154l475 -1248q9 -23 15 -29t28 -10l92 -16v-88zM834 606l-203 553l-197 -553
h400z" />
    <glyph glyph-name="Atilde" unicode="&#xc3;" horiz-adv-x="1360" 
d="M1028 1776q-57 -226 -237 -226q-51 0 -132 49.5t-151 49.5q-40 0 -72 -30.5t-37 -68.5h-82q57 226 238 226q51 0 133 -49.5t152 -49.5q40 0 70.5 30t35.5 69h82zM1360 0h-488v88l119 10q9 1 16.5 14t4.5 21l-140 375h-475l-135 -369q-1 -3 -1 -6q0 -33 30 -35l121 -10
v-88h-412v88l119 25l477 1278h154l475 -1248q9 -23 15 -29t28 -10l92 -16v-88zM834 606l-203 553l-197 -553h400z" />
    <glyph glyph-name="Adieresis" unicode="&#xc4;" horiz-adv-x="1360" 
d="M993 1665q0 -46 -33 -80.5t-79 -34.5t-79.5 34.5t-33.5 80.5q0 43 35 78t78 35q46 0 79 -33.5t33 -79.5zM569 1665q0 -46 -33 -80.5t-79 -34.5q-45 0 -79 34t-34 79t34.5 80t78.5 35q46 0 79 -33.5t33 -79.5zM1360 0h-488v88l119 10q9 1 16.5 14t4.5 21l-140 375h-475
l-135 -369q-1 -3 -1 -6q0 -33 30 -35l121 -10v-88h-412v88l119 25l477 1278h154l475 -1248q9 -23 15 -29t28 -10l92 -16v-88zM834 606l-203 553l-197 -553h400z" />
    <glyph glyph-name="Aring" unicode="&#xc5;" horiz-adv-x="1360" 
d="M926 1743q0 -106 -75 -181t-181 -75t-180 75t-74 181t74 180t180 74t181 -74t75 -180zM1360 0h-488v88l119 10q9 1 16.5 14t4.5 21l-140 375h-475l-135 -369q-1 -3 -1 -6q0 -33 30 -35l121 -10v-88h-412v88l119 25l477 1278h154l475 -1248q9 -23 15 -29t28 -10l92 -16
v-88zM803 1743q0 55 -39 94t-94 39t-94 -39t-39 -94t39 -94t94 -39t94 39t39 94zM834 606l-203 553l-197 -553h400z" />
    <glyph glyph-name="AE" unicode="&#xc6;" horiz-adv-x="1847" 
d="M1835 0h-1014v88l101 8q53 4 53 45v371h-473l-230 -371q-25 -40 15 -43l116 -10v-88h-403v88l109 16l696 1131q4 6 4 12q0 28 -33 31l-100 10v86h1085v-305h-119l-28 168q-6 39 -35 39h-408v-510l269 -2q32 0 37 37l18 141h100v-457h-100l-18 144q-4 35 -37 35h-269v-564
h480q31 0 37 39l30 203h117v-342zM975 614v666l-416 -668z" />
    <glyph glyph-name="Ccedilla" unicode="&#xc7;" horiz-adv-x="1296" 
d="M1210 47q-174 -70 -393 -72v-104q56 8 47 8q150 0 150 -145q0 -93 -69 -145q-65 -50 -171 -50q-67 0 -151 21v80q77 -17 125 -17q131 0 131 84q0 76 -97 76q-19 0 -47 -12v206q-302 22 -481 234q-168 197 -168 479q0 318 198 513.5t519 195.5q174 0 407 -72v-321h-123
l-30 186q-5 33 -35 47q-95 45 -209 45q-218 0 -350 -147q-141 -156 -141 -441t137.5 -446.5t380.5 -161.5q101 0 166 27q32 13 38 41l48 223h118v-332z" />
    <glyph glyph-name="Egrave" unicode="&#xc8;" horiz-adv-x="1198" 
d="M752 1487h-117l-311 199q-48 31 -48 83q0 91 95 91q57 0 106 -56zM1130 0h-1064v88l108 8q45 3 45 45v1092q0 42 -45 45l-108 8v88h995v-305h-123l-29 168q-7 39 -37 39h-448v-510h311q32 0 37 35l19 141h104v-457h-104l-19 142q-5 37 -37 37h-311v-564h522q30 0 37 39
l35 203h112v-342z" />
    <glyph glyph-name="Eacute" unicode="&#xc9;" horiz-adv-x="1198" 
d="M963 1774q0 -50 -50 -82l-311 -199h-115l273 317q48 56 106 56q97 0 97 -92zM1130 0h-1064v88l108 8q45 3 45 45v1092q0 42 -45 45l-108 8v88h995v-305h-123l-29 168q-7 39 -37 39h-448v-510h311q32 0 37 35l19 141h104v-457h-104l-19 142q-5 37 -37 37h-311v-564h522
q30 0 37 39l35 203h112v-342z" />
    <glyph glyph-name="Ecircumflex" unicode="&#xca;" horiz-adv-x="1198" 
d="M948 1487h-123l-211 205l-211 -205h-122l258 348h153zM1130 0h-1064v88l108 8q45 3 45 45v1092q0 42 -45 45l-108 8v88h995v-305h-123l-29 168q-7 39 -37 39h-448v-510h311q32 0 37 35l19 141h104v-457h-104l-19 142q-5 37 -37 37h-311v-564h522q30 0 37 39l35 203h112
v-342z" />
    <glyph glyph-name="Edieresis" unicode="&#xcb;" horiz-adv-x="1198" 
d="M952 1665q0 -47 -32 -81t-78 -34t-79.5 34.5t-33.5 80.5q0 43 35 78t78 35q46 0 78 -33.5t32 -79.5zM528 1665q0 -46 -33 -80.5t-79 -34.5q-44 0 -77.5 34t-33.5 79t33.5 80t77.5 35q46 0 79 -33.5t33 -79.5zM1130 0h-1064v88l108 8q45 3 45 45v1092q0 42 -45 45l-108 8
v88h995v-305h-123l-29 168q-7 39 -37 39h-448v-510h311q32 0 37 35l19 141h104v-457h-104l-19 142q-5 37 -37 37h-311v-564h522q30 0 37 39l35 203h112v-342z" />
    <glyph glyph-name="Igrave" unicode="&#xcc;" horiz-adv-x="676" 
d="M473 1487h-117l-311 199q-47 30 -47 83q0 91 94 91q59 0 107 -56zM608 0h-540v88l125 8q43 3 43 45v1092q0 40 -43 43l-125 8v90h540v-90l-123 -8q-45 -3 -45 -43v-1092q0 -42 45 -45l123 -8v-88z" />
    <glyph glyph-name="Iacute" unicode="&#xcd;" horiz-adv-x="676" 
d="M662 1769q0 -52 -48 -83l-311 -199h-117l275 317q49 56 106 56q95 0 95 -91zM608 0h-540v88l122 8q43 3 43 45v1092q0 40 -43 43l-122 8v90h540v-90l-125 -8q-43 -3 -43 -43v-1092q0 -42 43 -45l125 -8v-88z" />
    <glyph glyph-name="Icircumflex" unicode="&#xce;" horiz-adv-x="676" 
d="M672 1487h-123l-211 205l-211 -205h-125l258 348h156zM608 0h-540v88l125 8q43 3 43 45v1092q0 40 -43 43l-125 8v90h540v-90l-123 -8q-45 -3 -45 -43v-1092q0 -42 45 -45l123 -8v-88z" />
    <glyph glyph-name="Idieresis" unicode="&#xcf;" horiz-adv-x="676" 
d="M662 1665q0 -46 -32.5 -80.5t-78.5 -34.5t-79.5 34.5t-33.5 80.5q0 43 34 78t77 35q46 0 79.5 -33.5t33.5 -79.5zM238 1665q0 -46 -33.5 -80.5t-79.5 -34.5q-44 0 -77.5 34t-33.5 79t33.5 80t77.5 35q46 0 79.5 -33.5t33.5 -79.5zM608 0h-540v88l125 8q43 3 43 45v1092
q0 40 -43 43l-125 8v90h540v-90l-123 -8q-45 -3 -45 -43v-1092q0 -42 45 -45l123 -8v-88z" />
    <glyph glyph-name="Ntilde" unicode="&#xd1;" horiz-adv-x="1466" 
d="M1114 1776q-57 -226 -235 -226q-51 0 -133 49.5t-152 49.5q-40 0 -71 -30.5t-36 -68.5h-81q57 226 235 226q51 0 133 -49.5t152 -49.5q40 0 70.5 30t35.5 69h82zM1419 1286l-114 -8q-43 -3 -43 -45v-1233h-160l-762 1147v-1006q0 -42 43 -45l117 -8v-88h-443v88l117 8
q45 3 45 45v1092q0 42 -45 45l-121 8v88h406v-51l682 -1030v940q0 42 -43 45l-117 8v88h438v-88z" />
    <glyph glyph-name="Ograve" unicode="&#xd2;" horiz-adv-x="1507" 
d="M862 1487h-117l-311 199q-47 30 -47 83q0 91 94 91q59 0 107 -56zM1423 686q0 -304 -183 -508q-189 -211 -484 -211q-298 0 -486 206q-184 203 -184 515q0 307 181 510q188 211 487 211q298 0 487 -213q182 -205 182 -510zM1186 684q0 264 -107 429q-117 179 -323 179
q-212 0 -328 -180q-106 -163 -106 -424q0 -262 106 -427q116 -181 324 -181q211 0 328 181q106 164 106 423z" />
    <glyph glyph-name="Oacute" unicode="&#xd3;" horiz-adv-x="1507" 
d="M1112 1769q0 -53 -47 -83l-311 -199h-117l274 317q48 56 107 56q94 0 94 -91zM1423 686q0 -304 -183 -508q-189 -211 -484 -211q-298 0 -486 206q-184 203 -184 515q0 307 181 510q188 211 487 211q298 0 487 -213q182 -205 182 -510zM1186 684q0 264 -107 429
q-117 179 -323 179q-212 0 -328 -180q-106 -163 -106 -424q0 -262 106 -427q116 -181 324 -181q211 0 328 181q106 164 106 423z" />
    <glyph glyph-name="Ocircumflex" unicode="&#xd4;" horiz-adv-x="1507" 
d="M1087 1487h-122l-211 205l-211 -205h-123l256 348h153zM1423 686q0 -304 -183 -508q-189 -211 -484 -211q-298 0 -486 206q-184 203 -184 515q0 307 181 510q188 211 487 211q298 0 487 -213q182 -205 182 -510zM1186 684q0 264 -107 429q-117 179 -323 179
q-212 0 -328 -180q-106 -163 -106 -424q0 -262 106 -427q116 -181 324 -181q211 0 328 181q106 164 106 423z" />
    <glyph glyph-name="Otilde" unicode="&#xd5;" horiz-adv-x="1507" 
d="M1106 1776q-57 -226 -238 -226q-51 0 -132.5 49.5t-151.5 49.5q-40 0 -71 -30.5t-36 -68.5h-82q57 226 238 226q51 0 131.5 -49.5t150.5 -49.5q40 0 72 30.5t37 68.5h82zM1425 686q0 -304 -183 -508q-189 -211 -484 -211q-298 0 -487 206q-185 203 -185 515
q0 307 182 510q189 211 488 211q298 0 487 -213q182 -205 182 -510zM1188 684q0 264 -107 429q-117 179 -323 179q-212 0 -328 -180q-106 -163 -106 -424q0 -262 106 -427q116 -181 324 -181q211 0 328 181q106 164 106 423z" />
    <glyph glyph-name="Odieresis" unicode="&#xd6;" horiz-adv-x="1507" 
d="M1075 1665q0 -47 -32 -81t-78 -34t-79.5 34.5t-33.5 80.5q0 43 34 78t77 35q46 0 79 -33.5t33 -79.5zM651 1665q0 -46 -33 -80.5t-79 -34.5q-44 0 -77.5 34t-33.5 79t33.5 80t77.5 35q46 0 79 -33.5t33 -79.5zM1425 686q0 -304 -183 -508q-189 -211 -484 -211
q-298 0 -487 206q-185 203 -185 515q0 307 182 510q189 211 488 211q298 0 487 -213q182 -205 182 -510zM1188 684q0 264 -107 429q-117 179 -323 179q-212 0 -328 -180q-106 -163 -106 -424q0 -262 106 -427q116 -181 324 -181q211 0 328 181q106 164 106 423z" />
    <glyph glyph-name="Oslash" unicode="&#xd8;" horiz-adv-x="1507" 
d="M1423 686q0 -304 -183 -508q-189 -211 -484 -211q-185 0 -330 82l-127 -211l-94 58l129 217q-248 206 -248 575q0 307 181 510q188 211 487 211q165 0 307 -74l117 197l96 -57l-119 -199q268 -207 268 -590zM1186 684q0 275 -119 444l-567 -954q104 -94 252 -94
q211 0 328 181q106 164 106 423zM987 1214q-97 78 -231 78q-212 0 -328 -180q-106 -163 -106 -424q0 -260 102 -422z" />
    <glyph glyph-name="Ugrave" unicode="&#xd9;" horiz-adv-x="1440" 
d="M866 1487h-116l-312 199q-47 30 -47 83q0 91 94 91q59 0 107 -56zM1397 1286l-117 -8q-43 -3 -43 -45v-778q0 -480 -528 -480q-510 0 -510 480v778q0 42 -43 45l-109 8v88h531v-88l-117 -8q-43 -3 -43 -45v-725q0 -197 67 -287q81 -108 281 -108q198 0 281 112
q69 93 69 283v725q0 42 -45 45l-117 8v88h443v-88z" />
    <glyph glyph-name="Uacute" unicode="&#xda;" horiz-adv-x="1442" 
d="M1114 1769q0 -53 -47 -83l-311 -199h-117l272 317q48 56 109 56q94 0 94 -91zM1397 1286l-117 -8q-43 -3 -43 -45v-778q0 -480 -528 -480q-510 0 -510 480v778q0 42 -43 45l-109 8v88h531v-88l-117 -8q-43 -3 -43 -45v-725q0 -197 67 -287q81 -108 281 -108
q198 0 281 112q69 93 69 283v725q0 42 -45 45l-117 8v88h443v-88z" />
    <glyph glyph-name="Ucircumflex" unicode="&#xdb;" horiz-adv-x="1442" 
d="M1090 1487h-123l-213 205l-211 -205h-123l258 348h153zM1397 1286l-117 -8q-43 -3 -43 -45v-778q0 -480 -528 -480q-510 0 -510 480v778q0 42 -43 45l-109 8v88h531v-88l-117 -8q-43 -3 -43 -45v-725q0 -197 67 -287q81 -108 281 -108q198 0 281 112q69 93 69 283v725
q0 42 -45 45l-117 8v88h443v-88z" />
    <glyph glyph-name="Udieresis" unicode="&#xdc;" horiz-adv-x="1442" 
d="M1085 1665q0 -47 -32 -81t-78 -34t-79.5 34.5t-33.5 80.5q0 43 34 78t77 35q46 0 79 -33.5t33 -79.5zM662 1665q0 -46 -33.5 -80.5t-79.5 -34.5q-44 0 -77.5 34t-33.5 79t33.5 80t77.5 35q46 0 79.5 -33.5t33.5 -79.5zM1399 1286l-115 -8q-45 -3 -45 -45v-778
q0 -480 -526 -480q-510 0 -510 480v778q0 42 -43 45l-111 8v88h531v-88l-115 -8q-45 -3 -45 -45l2 -725q0 -197 66 -287q80 -108 280 -108q198 0 282 112q70 94 70 283v725q0 42 -45 45l-117 8v88h441v-88z" />
    <glyph glyph-name="germandbls" unicode="&#xdf;" horiz-adv-x="1264" 
d="M1210 305q0 -146 -105 -235q-100 -84 -251 -84q-87 0 -242 41v274h111l18 -178q45 -41 123 -41q75 0 123.5 47.5t48.5 116.5q0 114 -223 237q-117 65 -164 120q-51 59 -51 138q0 108 70 184q67 73 176 97q20 96 20 147q0 101 -51 170q-56 78 -156 78q-166 0 -237 -180
q-47 -118 -47 -289v-813q0 -47 30 -49l105 -8v-78h-469v78l98 10q41 4 41 45v795q0 237 123 402q141 190 393 190q172 0 267 -98q90 -93 90 -253q0 -48 -33 -213q1 0 -14.5 2.5t-32.5 2.5q-189 0 -189 -156q0 -102 222 -219q206 -109 206 -281z" />
    <glyph glyph-name="agrave" unicode="&#xe0;" horiz-adv-x="1049" 
d="M659 1128h-116l-312 199q-47 30 -47 82q0 92 95 92q59 0 106 -55zM1024 0h-307l-27 121q-190 -137 -338 -137q-115 0 -188 69q-78 74 -78 199q0 128 101 200q129 92 503 173v88q0 202 -186 202q-81 0 -146 -26v-178h-149q-76 0 -76 59q0 117 137 183q119 57 289 57
q324 0 324 -305v-574q0 -42 43 -45l98 -6v-80zM690 193v354q-251 -63 -339 -137q-62 -54 -62 -144q0 -67 40 -112q42 -50 113 -50q101 0 248 89z" />
    <glyph glyph-name="aacute" unicode="&#xe1;" horiz-adv-x="1049" 
d="M877 1409q0 -51 -48 -82l-311 -199h-117l275 318q48 55 106 55q95 0 95 -92zM1024 0h-307l-27 121q-190 -137 -338 -137q-115 0 -188 69q-78 74 -78 199q0 128 101 200q129 92 503 173v88q0 202 -186 202q-81 0 -146 -26v-178h-149q-76 0 -76 59q0 117 137 183
q119 57 289 57q324 0 324 -305v-574q0 -42 43 -45l98 -6v-80zM690 193v354q-251 -63 -339 -137q-62 -54 -62 -144q0 -67 40 -112q42 -50 113 -50q101 0 248 89z" />
    <glyph glyph-name="acircumflex" unicode="&#xe2;" horiz-adv-x="1049" 
d="M844 1128h-123l-211 203l-211 -203h-125l258 347h156zM1024 0h-307l-27 121q-190 -137 -338 -137q-115 0 -188 69q-78 74 -78 199q0 128 101 200q129 92 503 173v88q0 202 -186 202q-81 0 -146 -26v-178h-149q-76 0 -76 59q0 117 137 183q119 57 289 57q324 0 324 -305
v-574q0 -42 43 -45l98 -6v-80zM690 193v354q-251 -63 -339 -137q-62 -54 -62 -144q0 -67 40 -112q42 -50 113 -50q101 0 248 89z" />
    <glyph glyph-name="atilde" unicode="&#xe3;" horiz-adv-x="1049" 
d="M881 1423q-57 -225 -238 -225q-51 0 -133 49t-152 49q-40 0 -70.5 -30t-35.5 -68h-82q57 225 238 225q51 0 131.5 -49t150.5 -49q40 0 72 30t37 68h82zM1024 0h-307l-27 121q-190 -137 -338 -137q-115 0 -188 69q-78 74 -78 199q0 128 101 200q129 92 503 173v88
q0 202 -186 202q-81 0 -146 -26v-178h-149q-76 0 -76 59q0 117 137 183q119 57 289 57q324 0 324 -305v-574q0 -42 43 -45l98 -6v-80zM690 193v354q-251 -63 -339 -137q-62 -54 -62 -144q0 -67 40 -112q42 -50 113 -50q101 0 248 89z" />
    <glyph glyph-name="adieresis" unicode="&#xe4;" horiz-adv-x="1049" 
d="M856 1313q0 -46 -33.5 -80.5t-79.5 -34.5t-78 34t-32 81q0 43 33.5 77.5t76.5 34.5q46 0 79.5 -33t33.5 -79zM430 1313q0 -46 -33.5 -80.5t-79.5 -34.5q-44 0 -76 34t-32 79t33 79.5t77 34.5q46 0 78.5 -33t32.5 -79zM1024 0h-307l-27 121q-190 -137 -338 -137
q-115 0 -188 69q-78 74 -78 199q0 128 101 200q129 92 503 173v88q0 202 -186 202q-81 0 -146 -26v-178h-149q-76 0 -76 59q0 117 137 183q119 57 289 57q324 0 324 -305v-574q0 -42 43 -45l98 -6v-80zM690 193v354q-251 -63 -339 -137q-62 -54 -62 -144q0 -67 40 -112
q42 -50 113 -50q101 0 248 89z" />
    <glyph glyph-name="aring" unicode="&#xe5;" horiz-adv-x="1049" 
d="M782 1372q0 -101 -71 -172.5t-172 -71.5t-172.5 71.5t-71.5 172.5t71.5 172.5t172.5 71.5t172 -71.5t71 -172.5zM1024 0h-307l-27 121q-190 -137 -338 -137q-115 0 -188 69q-78 74 -78 199q0 128 101 200q129 92 503 173v88q0 202 -186 202q-81 0 -146 -26v-178h-149
q-76 0 -76 59q0 117 137 183q119 57 289 57q324 0 324 -305v-574q0 -42 43 -45l98 -6v-80zM682 1372q0 60 -41.5 102t-101.5 42t-102 -42t-42 -102t42 -101.5t102 -41.5t101.5 41.5t41.5 101.5zM690 193v354q-251 -63 -339 -137q-62 -54 -62 -144q0 -67 40 -112
q42 -50 113 -50q101 0 248 89z" />
    <glyph glyph-name="ae" unicode="&#xe6;" horiz-adv-x="1507" 
d="M1423 102q-163 -118 -340 -118q-221 0 -372 147q-194 -147 -361 -147q-126 0 -197 73q-67 70 -67 187q0 153 134 232q105 62 446 149v84q0 206 -183 206q-64 0 -129 -26v-178h-143q-78 0 -78 59q0 117 131 183q113 57 271 57q191 0 272 -119q100 119 276 119
q172 0 261 -125q79 -110 79 -289q0 -21 -4 -72h-573v-272q131 -131 303 -131q149 0 274 104v-123zM1221 612v62q0 101 -42 167q-47 74 -132 74q-105 0 -157 -96q-44 -80 -44 -207h375zM666 193v354q-221 -60 -304 -122q-79 -58 -79 -153q0 -166 155 -166q89 0 228 87z" />
    <glyph glyph-name="ccedilla" unicode="&#xe7;" horiz-adv-x="963" 
d="M891 84q-169 -93 -322 -100v-113q56 8 47 8q150 0 150 -145q0 -93 -68 -145q-64 -50 -170 -50q-67 0 -153 21v80q77 -17 125 -17q133 0 133 84q0 76 -98 76q-19 0 -46 -12v215q-189 18 -301 156t-112 345q0 247 148 391q137 132 345 132q140 0 227 -53q91 -55 91 -152
q0 -57 -35.5 -88t-85.5 -31q-52 0 -102 33v180q-44 25 -86 25q-135 0 -214 -114.5t-79 -295.5q0 -178 86 -286q91 -115 254 -115q131 0 266 88v-117z" />
    <glyph glyph-name="egrave" unicode="&#xe8;" horiz-adv-x="1014" 
d="M662 1128h-117l-312 199q-47 30 -47 82q0 92 95 92q58 0 106 -55zM940 102q-189 -118 -389 -118q-201 0 -330 121q-145 135 -145 378q0 237 135 382t346 145q185 0 287 -118q96 -111 96 -300q0 -39 -2 -57h-664q0 -181 72 -291q88 -135 270 -135q147 0 324 118v-125z
M735 627v45q0 107 -48 170q-53 69 -150 69q-103 0 -173.5 -77t-78.5 -207h450z" />
    <glyph glyph-name="eacute" unicode="&#xe9;" horiz-adv-x="1014" 
d="M897 1409q0 -52 -47 -82l-311 -199h-117l272 318q47 55 109 55q94 0 94 -92zM940 102q-189 -118 -389 -118q-201 0 -330 121q-145 135 -145 378q0 237 135 382t346 145q185 0 287 -118q96 -111 96 -300q0 -39 -2 -57h-664q0 -181 72 -291q88 -135 270 -135q147 0 324 118
v-125zM735 627v45q0 107 -48 170q-53 69 -150 69q-103 0 -173.5 -77t-78.5 -207h450z" />
    <glyph glyph-name="ecircumflex" unicode="&#xea;" horiz-adv-x="1014" 
d="M856 1128h-123l-211 203l-211 -203h-123l256 347h154zM940 102q-189 -118 -389 -118q-201 0 -330 121q-145 135 -145 378q0 237 135 382t346 145q185 0 287 -118q96 -111 96 -300q0 -39 -2 -57h-664q0 -181 72 -291q88 -135 270 -135q147 0 324 118v-125zM735 627v45
q0 107 -48 170q-53 69 -150 69q-103 0 -173.5 -77t-78.5 -207h450z" />
    <glyph glyph-name="edieresis" unicode="&#xeb;" horiz-adv-x="1014" 
d="M852 1313q0 -46 -33.5 -80.5t-79.5 -34.5t-79 34.5t-33 80.5q0 43 33.5 77.5t76.5 34.5q46 0 80.5 -33t34.5 -79zM426 1313q0 -46 -33.5 -80.5t-79.5 -34.5q-44 0 -77 34t-33 79t33 79.5t77 34.5q46 0 79.5 -33t33.5 -79zM940 102q-189 -118 -389 -118q-201 0 -330 121
q-145 135 -145 378q0 237 135 382t346 145q185 0 287 -118q96 -111 96 -300q0 -39 -2 -57h-664q0 -181 72 -291q88 -135 270 -135q147 0 324 118v-125zM735 627v45q0 107 -48 170q-53 69 -150 69q-103 0 -173.5 -77t-78.5 -207h450z" />
    <glyph glyph-name="igrave" unicode="&#xec;" horiz-adv-x="621" 
d="M446 1128h-114l-312 199q-49 31 -49 82q0 92 97 92q59 0 106 -55zM551 0h-481v80l100 6q43 3 43 45v723h-141v68l250 77h81v-868q0 -43 43 -45l105 -6v-80z" />
    <glyph glyph-name="iacute" unicode="&#xed;" horiz-adv-x="621" 
d="M553 1409q0 -52 -47 -82l-311 -199h-117l272 318q47 55 109 55q94 0 94 -92zM551 0h-481v80l100 6q43 3 43 45v723h-141v68l250 77h81v-868q0 -43 43 -45l105 -6v-80z" />
    <glyph glyph-name="icircumflex" unicode="&#xee;" horiz-adv-x="621" 
d="M643 1128h-123l-213 203l-211 -203h-123l258 347h154zM551 0h-481v80l100 6q43 3 43 45v723h-141v68l250 77h81v-868q0 -43 43 -45l105 -6v-80z" />
    <glyph glyph-name="idieresis" unicode="&#xef;" horiz-adv-x="621" 
d="M633 1313q0 -46 -33.5 -80.5t-79.5 -34.5t-78 34t-32 81q0 43 33.5 77.5t76.5 34.5q46 0 79.5 -33t33.5 -79zM209 1313q0 -46 -33.5 -80.5t-79.5 -34.5q-44 0 -77 34t-33 79t33 79.5t77 34.5q46 0 79.5 -33t33.5 -79zM551 0h-481v80l100 6q43 3 43 45v723h-141v68l250 77
h81v-868q0 -43 43 -45l105 -6v-80z" />
    <glyph glyph-name="ntilde" unicode="&#xf1;" horiz-adv-x="1182" 
d="M940 1423q-57 -225 -238 -225q-51 0 -131.5 49t-150.5 49q-40 0 -72 -30t-37 -68h-82q57 225 238 225q51 0 133 -49t152 -49q40 0 70.5 30t35.5 68h82zM1130 0h-452v80l86 6q43 3 43 45v531q0 200 -197 200q-107 0 -225 -59v-672q0 -42 43 -45l86 -6v-80h-463v80l101 6
q43 3 43 45v723h-144v68l250 77h84v-114q219 125 338 125q274 0 274 -314v-565q0 -42 43 -45l90 -6v-80z" />
    <glyph glyph-name="ograve" unicode="&#xf2;" horiz-adv-x="1135" 
d="M682 1128h-117l-311 199q-47 30 -47 82q0 92 94 92q60 0 107 -55zM1051 494q0 -222 -133 -364q-136 -146 -357 -146t-355 144q-130 141 -130 366t131 368q135 148 358 148t357 -150q129 -143 129 -366zM838 496q0 179 -68 295q-75 127 -207 127q-135 0 -207 -127
q-65 -114 -65 -295q0 -178 67 -293q74 -127 205 -127q134 0 208 126q67 114 67 294z" />
    <glyph glyph-name="oacute" unicode="&#xf3;" horiz-adv-x="1135" 
d="M932 1409q0 -52 -47 -82l-312 -199h-116l272 318q47 55 109 55q94 0 94 -92zM1051 494q0 -222 -133 -364q-136 -146 -357 -146t-355 144q-130 141 -130 366t131 368q135 148 358 148t357 -150q129 -143 129 -366zM838 496q0 179 -68 295q-75 127 -207 127
q-135 0 -207 -127q-65 -114 -65 -295q0 -178 67 -293q74 -127 205 -127q134 0 208 126q67 114 67 294z" />
    <glyph glyph-name="ocircumflex" unicode="&#xf4;" horiz-adv-x="1135" 
d="M899 1128h-123l-211 203l-213 -203h-123l258 347h154zM1051 494q0 -222 -133 -364q-136 -146 -357 -146t-355 144q-130 141 -130 366q0 224 132 368q136 148 359 148t356 -150q128 -143 128 -366zM838 496q0 179 -68 295q-75 127 -207 127q-135 0 -207 -127
q-65 -114 -65 -295q0 -178 67 -293q74 -127 205 -127q134 0 208 126q67 114 67 294z" />
    <glyph glyph-name="otilde" unicode="&#xf5;" horiz-adv-x="1135" 
d="M930 1423q-57 -225 -238 -225q-51 0 -131.5 49t-150.5 49q-40 0 -72 -30t-37 -68h-82q57 225 238 225q51 0 132.5 -49t151.5 -49q40 0 71 30t36 68h82zM1051 494q0 -222 -133 -364q-136 -146 -357 -146t-355 144q-130 141 -130 366t131 368q135 148 358 148t357 -150
q129 -143 129 -366zM838 496q0 179 -68 295q-75 127 -207 127q-135 0 -207 -127q-65 -114 -65 -295q0 -178 67 -293q74 -127 205 -127q134 0 208 126q67 114 67 294z" />
    <glyph glyph-name="odieresis" unicode="&#xf6;" horiz-adv-x="1135" 
d="M893 1313q0 -46 -33.5 -80.5t-79.5 -34.5t-78 34t-32 81q0 43 33.5 77.5t76.5 34.5q46 0 79.5 -33t33.5 -79zM469 1313q0 -46 -33.5 -80.5t-79.5 -34.5q-44 0 -77 34t-33 79t33 79.5t77 34.5q46 0 79.5 -33t33.5 -79zM1051 494q0 -222 -133 -364q-136 -146 -357 -146
t-355 144q-130 141 -130 366t131 368q135 148 358 148t357 -150q129 -143 129 -366zM838 496q0 179 -68 295q-75 127 -207 127q-135 0 -207 -127q-65 -114 -65 -295q0 -178 67 -293q74 -127 205 -127q134 0 208 126q67 114 67 294z" />
    <glyph glyph-name="divide" unicode="&#xf7;" horiz-adv-x="1706" 
d="M977 967q0 -52 -36 -87.5t-87 -35.5t-88 35.5t-37 87.5q0 51 37 87t88 36t87 -36t36 -87zM1452 553h-1198v117h1198v-117zM977 256q0 -50 -36 -85.5t-87 -35.5t-88 35.5t-37 85.5q0 52 37 88.5t88 36.5t87 -36.5t36 -88.5z" />
    <glyph glyph-name="oslash" unicode="&#xf8;" horiz-adv-x="1122" 
d="M1051 498q0 -218 -130 -363q-135 -151 -354 -151q-144 0 -235 53l-117 -205l-72 43l119 207q-186 154 -186 412q0 223 132 367q136 149 357 149q117 0 203 -43l104 182l74 -41l-104 -182q209 -154 209 -428zM711 864q-59 51 -150 51q-134 0 -208 -124q-66 -112 -66 -291
q0 -178 55 -277zM838 492q0 194 -70 303l-375 -650q65 -69 168 -69q137 0 211 125q66 112 66 291z" />
    <glyph glyph-name="ugrave" unicode="&#xf9;" horiz-adv-x="1165" 
d="M729 1128h-117l-311 199q-47 30 -47 82q0 92 94 92q62 0 109 -55zM1122 0h-323v117q-174 -133 -330 -133q-283 0 -283 323v555h-143v70l252 78h84v-664q0 -223 196 -223q118 0 224 53v686h-144v70l250 78h82v-879q0 -42 45 -45l90 -6v-80z" />
    <glyph glyph-name="uacute" unicode="&#xfa;" horiz-adv-x="1165" 
d="M942 1409q0 -53 -45 -82l-311 -199h-117l272 318q47 55 109 55q92 0 92 -92zM1122 0h-323v117q-174 -133 -330 -133q-283 0 -283 323v555h-143v70l252 78h84v-664q0 -223 196 -223q118 0 224 53v686h-144v70l250 78h82v-879q0 -42 45 -45l90 -6v-80z" />
    <glyph glyph-name="ucircumflex" unicode="&#xfb;" horiz-adv-x="1165" 
d="M899 1128h-123l-211 203l-213 -203h-123l258 347h154zM1122 0h-323v117q-174 -133 -330 -133q-283 0 -283 323v555h-143v70l252 78h84v-664q0 -223 196 -223q118 0 224 53v686h-144v70l250 78h82v-879q0 -42 45 -45l90 -6v-80z" />
    <glyph glyph-name="udieresis" unicode="&#xfc;" horiz-adv-x="1165" 
d="M926 1313q0 -46 -33.5 -80.5t-79.5 -34.5t-78.5 34.5t-32.5 80.5q0 43 34 77.5t77 34.5q46 0 79.5 -33t33.5 -79zM502 1313q0 -46 -34.5 -80.5t-80.5 -34.5q-44 0 -76 34t-32 79t33 79.5t77 34.5q46 0 79.5 -33t33.5 -79zM1122 0h-323v117q-174 -133 -330 -133
q-283 0 -283 323v555h-143v70l252 78h84v-664q0 -223 196 -223q118 0 224 53v686h-144v70l250 78h82v-879q0 -42 45 -45l90 -6v-80z" />
    <glyph glyph-name="ydieresis" unicode="&#xff;" horiz-adv-x="1085" 
d="M899 1313q0 -46 -32.5 -80.5t-78.5 -34.5t-79 34.5t-33 80.5q0 43 34.5 77.5t77.5 34.5q46 0 78.5 -33t32.5 -79zM475 1313q0 -46 -33.5 -80.5t-79.5 -34.5q-44 0 -77 34t-33 79t33 79.5t77 34.5q46 0 79.5 -33t33.5 -79zM1065 909l-107 -12l-393 -960
q-89 -217 -176 -304q-79 -79 -178 -79q-69 0 -111 36q-39 33 -39 82q0 68 66 123l192 -88q93 93 162 295l-348 895l-113 12v78h453v-78l-98 -6q-33 -2 -33 -33q0 -6 2 -12l238 -606l243 606q6 15 -2.5 29.5t-25.5 15.5l-97 6v78h365v-78z" />
    <glyph glyph-name="OE" unicode="&#x152;" horiz-adv-x="2042" 
d="M1985 0h-859v242q-54 -108 -155 -178q-120 -82 -275 -82q-274 0 -445 205q-165 199 -165 499q0 295 160 493q172 214 459 214q302 0 421 -254v235h787v-305h-121l-29 168q-7 39 -37 39h-407v-510h270q31 0 35 35l18 141h105v-457h-105l-18 142q-5 37 -37 37h-268v-564
h481q28 0 35 39l35 203h115v-342zM1130 684q0 258 -105 422q-110 174 -298 174q-199 0 -307 -176q-98 -160 -98 -416q0 -257 100 -417q109 -175 303 -175q189 0 299 169q106 161 106 419z" />
    <glyph glyph-name="oe" unicode="&#x153;" horiz-adv-x="1696" 
d="M1616 592q0 -39 -2 -57h-617q0 -175 73 -285q88 -131 261 -131q138 0 283 108v-125q-168 -120 -350 -120q-228 0 -363 196q-148 -196 -360 -196q-214 0 -343 151q-122 142 -122 361q0 221 123 365q130 151 346 151q133 0 236 -61q89 -52 132 -132q54 89 146 141t196 52
q174 0 270 -117q91 -111 91 -301zM1409 627v45q0 105 -44 170q-47 71 -130 71q-95 0 -157 -83q-59 -78 -70 -203h401zM803 489q0 186 -62 300q-68 124 -194 124t-196 -125q-62 -112 -62 -288q0 -181 64 -297q71 -127 194 -127q124 0 193 124q63 113 63 289z" />
    <glyph glyph-name="Ydieresis" unicode="&#x178;" horiz-adv-x="1280" 
d="M991 1665q0 -46 -33 -80.5t-79 -34.5t-78.5 34.5t-32.5 80.5q0 43 34 78t77 35q46 0 79 -33.5t33 -79.5zM565 1665q0 -46 -33 -80.5t-79 -34.5q-44 0 -77.5 34t-33.5 79t34.5 80t78.5 35q46 0 78 -33.5t32 -79.5zM1260 1288l-111 -20l-412 -684v-443q0 -42 43 -45l131 -8
v-88h-551v88l127 8q45 3 45 45v412l-393 711l-119 24v86h486v-86l-103 -10q-44 -4 -24 -41l287 -537l317 531q4 7 4 14q0 25 -29 29l-114 14v86h416v-86z" />
    <glyph glyph-name="florin" unicode="&#x192;" horiz-adv-x="1153" 
d="M1053 1266q0 -84 -101 -131l-178 157q-75 -38 -105 -108q-36 -83 -36 -260v-168h330v-109h-328v-289q0 -383 -170 -557q-134 -137 -297 -137q-73 0 -113.5 35t-40.5 84q0 77 84 133l209 -131q139 95 139 338v524h-233v109h233q0 333 74 440q140 203 352 203q86 0 137 -43
q44 -38 44 -90z" />
    <glyph glyph-name="circumflex" unicode="&#x2c6;" horiz-adv-x="670" 
d="M670 1128h-123l-211 203l-213 -203h-123l258 347h154z" />
    <glyph glyph-name="tilde" unicode="&#x2dc;" horiz-adv-x="711" 
d="M711 1423q-57 -225 -238 -225q-51 0 -133 49t-152 49q-40 0 -70.5 -30t-35.5 -68h-82q57 225 238 225q51 0 131.5 -49t150.5 -49q40 0 72 30t37 68h82z" />
    <glyph glyph-name="endash" unicode="&#x2013;" horiz-adv-x="1024" 
d="M1024 541h-1024v180h1024v-180z" />
    <glyph glyph-name="emdash" unicode="&#x2014;" horiz-adv-x="2048" 
d="M2048 541h-2048v180h2048v-180z" />
    <glyph glyph-name="quoteleft" unicode="&#x2018;" horiz-adv-x="494" 
d="M508 1264q-57 -35 -114 -94t-75 -99q-153 88 -153 197q0 82 91 187q81 93 114 93q22 0 22 -24q0 -9 -23.5 -39.5t-23.5 -67.5q0 -83 162 -153z" />
    <glyph glyph-name="quoteright" unicode="&#x2019;" horiz-adv-x="494" 
d="M387 1352q0 -83 -92 -187q-82 -94 -115 -94q-20 0 -20 25q0 7 23.5 38.5t23.5 67.5q0 80 -162 156q56 32 115 93q56 57 73 97q154 -84 154 -196z" />
    <glyph glyph-name="quotesinglbase" unicode="&#x201a;" horiz-adv-x="440" 
d="M367 37q0 -126 -93 -246q-39 -50 -133 -133l-75 16q101 119 107 128q64 93 63 182q0 6 -1.5 21t-1.5 20h-129q-30 33 -30 79q0 54 34 89.5t89 35.5q79 0 124.5 -51t45.5 -141z" />
    <glyph glyph-name="quotedblleft" unicode="&#x201c;" horiz-adv-x="1057" 
d="M893 1264q-58 -35 -115.5 -94.5t-72.5 -98.5q-154 86 -154 197q0 82 91 187q81 93 114 93q20 0 20 -24q0 -9 -23.5 -39.5t-23.5 -67.5q0 -82 164 -153zM508 1264q-57 -35 -114 -94t-75 -99q-153 88 -153 197q0 82 91 187q81 93 114 93q22 0 22 -24q0 -9 -23.5 -39.5
t-23.5 -67.5q0 -83 162 -153z" />
    <glyph glyph-name="quotedblright" unicode="&#x201d;" horiz-adv-x="815" 
d="M770 1352q0 -83 -91 -187q-81 -94 -114 -94q-20 0 -20 25q0 7 22.5 38.5t22.5 67.5q0 80 -162 156q57 33 115 92t73 98q154 -82 154 -196zM387 1352q0 -83 -92 -187q-82 -94 -115 -94q-20 0 -20 25q0 7 23.5 38.5t23.5 67.5q0 80 -162 156q56 32 115 93q56 57 73 97
q154 -84 154 -196z" />
    <glyph glyph-name="quotedblbase" unicode="&#x201e;" horiz-adv-x="815" 
d="M770 150q0 -83 -91 -188q-81 -93 -114 -93q-11 0 -15.5 4t-4.5 18q0 9 22.5 41t22.5 68q0 83 -162 154q57 34 115 93t73 97q154 -82 154 -194zM387 150q0 -83 -92 -188q-82 -93 -115 -93q-11 0 -15.5 4t-4.5 18q0 9 23.5 41t23.5 68q0 83 -162 154q56 34 115 94
q56 58 73 96q154 -84 154 -194z" />
    <glyph glyph-name="dagger" unicode="&#x2020;" horiz-adv-x="1024" 
d="M608 1315l-82 -287h-28l-82 287l96 155zM995 985l-153 -94l-287 80v28l287 82zM471 971l-289 -80l-153 94l153 96l289 -82v-28zM616 602l-90 -866h-28l-90 866l90 340h28z" />
    <glyph glyph-name="daggerdbl" unicode="&#x2021;" horiz-adv-x="1024" 
d="M608 1315l-82 -287h-28l-80 287l94 155zM995 985l-153 -94l-287 80v28l287 82zM471 971l-289 -80l-153 94l153 96l289 -82v-28zM633 600l-107 -340h-28l-109 342l109 340h28zM995 217l-153 -96l-287 80v30l287 80zM471 201l-289 -80l-153 96l153 94l289 -80v-30z
M608 -113l-96 -155l-94 155l80 287h28z" />
    <glyph glyph-name="bullet" unicode="&#x2022;" horiz-adv-x="762" 
d="M662 748q0 -117 -82 -198t-199 -81t-199 81t-82 198t82 198.5t199 81.5t199 -81.5t82 -198.5z" />
    <glyph glyph-name="ellipsis" unicode="&#x2026;" horiz-adv-x="2048" 
d="M1845 121q0 -57 -39.5 -97t-97.5 -40q-57 0 -97 40t-40 97t39 97t96 40t98 -41t41 -96zM1161 121q0 -58 -40 -97.5t-97 -39.5q-58 0 -97.5 40t-39.5 97t40 97t97 40t97 -40t40 -97zM479 121q0 -57 -40 -97t-97 -40t-97 40t-40 97t40 97t97 40t97 -40t40 -97z" />
    <glyph glyph-name="perthousand" unicode="&#x2030;" horiz-adv-x="2537" 
d="M2476 406q0 -190 -78 -306q-84 -125 -235 -125q-152 0 -237 126q-79 116 -79 305q0 188 78 304q85 126 238 126q152 0 236 -125q77 -116 77 -305zM1700 406q0 -189 -80 -306q-85 -125 -236 -125q-152 0 -236 126q-77 116 -77 305t78 305q85 125 237 125t236 -126
q78 -116 78 -304zM1380 1374l-868 -1374h-129l868 1374h129zM696 971q0 -190 -80 -306q-85 -124 -235 -124q-153 0 -237 126q-78 116 -78 304q0 189 78 305q85 125 237 125t237 -125q78 -116 78 -305zM2320 406q0 352 -159 352q-158 0 -158 -352q0 -353 158 -353
q159 0 159 353zM1544 406q0 352 -160 352q-159 0 -159 -352q0 -353 159 -353q160 0 160 353zM539 971q0 352 -158 352q-160 0 -160 -352q0 -353 158 -353q160 0 160 353z" />
    <glyph glyph-name="guilsinglleft" unicode="&#x2039;" horiz-adv-x="502" 
d="M426 131l-340 279v163l340 281v-143l-238 -219l238 -218v-143z" />
    <glyph glyph-name="guilsinglright" unicode="&#x203a;" horiz-adv-x="502" 
d="M418 410l-340 -279v143l235 218l-235 219v143l340 -281v-163z" />
    <glyph glyph-name="trademark" unicode="&#x2122;" horiz-adv-x="1671" 
d="M1462 817h-223v45l61 10v428l-184 -483h-49l-174 483v-428l61 -10v-45h-186v45l63 10v424l-63 13v47h213v-27l135 -360l135 360v27h211v-47l-65 -13v-424l65 -10v-45zM709 1212h-56l-14 86q0 11 -8 11h-107v-437q26 -4 76 -10v-45h-252v45q23 2 78 10v437h-109
q-8 0 -8 -11l-12 -86h-59v144h471v-144z" />
    <glyph glyph-name="brokenbar" unicode="&#xa6;" horiz-adv-x="1024" 
d="M582 674h-140v760h140v-760zM582 -350h-140v760h140v-760z" />
    <glyph glyph-name="uni00AD" unicode="&#xad;" horiz-adv-x="657" 
d="M565 416h-475v153h475v-153z" />
    <glyph glyph-name="uni00B2" unicode="&#xb2;" horiz-adv-x="748" 
d="M686 604h-623v82q255 195 327 268q124 126 124 242q0 180 -174 180q-31 0 -109 -26v-136q-25 -20 -63 -20q-82 0 -82 72q0 77 86 127.5t205 50.5q129 0 204.5 -64t75.5 -172q0 -116 -137 -249q-79 -77 -317 -250h393l25 104h65v-209z" />
    <glyph glyph-name="uni00B3" unicode="&#xb3;" horiz-adv-x="764" 
d="M686 844q0 -111 -97 -180.5t-243 -69.5q-125 0 -202 46q-66 40 -66 91q0 70 78 70q28 0 45 -10l41 -109q51 -27 108 -27q89 0 147 58q54 54 54 131q0 151 -193 151q-44 0 -75 -4v76h34q201 0 201 156q0 74 -50 116q-47 39 -118 39q-67 0 -114 -28v-123q-34 -17 -60 -17
q-78 0 -78 70t83.5 118t203.5 48q118 0 192 -55q76 -58 76 -154q0 -143 -204 -197q96 -3 161 -49q76 -53 76 -147z" />
    <glyph glyph-name="uni00B9" unicode="&#xb9;" horiz-adv-x="688" 
d="M592 604h-451v55l135 5q29 1 29 26v649l-207 -32v55l289 82h49v-754q0 -25 31 -26l125 -5v-55z" />
    <glyph glyph-name="onequarter" unicode="&#xbc;" horiz-adv-x="1792" 
d="M1694 233h-152v-276h-115v276h-426v86l451 512h90v-514h152v-84zM1413 1430l-907 -1430h-131l909 1430h129zM592 604h-451v55l135 5q29 1 29 26v649l-207 -32v55l289 82h49v-754q0 -25 31 -26l125 -5v-55zM1427 317v371l-319 -371h319z" />
    <glyph glyph-name="onehalf" unicode="&#xbd;" horiz-adv-x="1792" 
d="M1700 0h-625v82q255 195 328 269q125 127 125 243q0 178 -174 178q-28 0 -109 -27v-135q-27 -20 -65 -20q-80 0 -80 72q0 77 85 127.5t204 50.5q129 0 204.5 -64t75.5 -172q0 -116 -136 -250q-81 -79 -316 -250h393l22 107h68v-211zM1399 1430l-910 -1430h-129l910 1430
h129zM588 604h-451v55l135 5q29 1 29 26v649l-207 -32v55l289 82h49v-754q0 -25 31 -26l125 -5v-55z" />
    <glyph glyph-name="threequarters" unicode="&#xbe;" horiz-adv-x="1792" 
d="M1716 233h-151v-276h-115v276h-426v86l451 512h90v-514h151v-84zM1436 1430l-910 -1430h-129l910 1430h129zM686 844q0 -111 -97 -180.5t-243 -69.5q-125 0 -202 46q-66 40 -66 91q0 70 78 70q28 0 45 -10l41 -109q51 -27 108 -27q89 0 147 58q54 54 54 131
q0 151 -193 151q-44 0 -75 -4v76h34q201 0 201 156q0 74 -50 116q-47 39 -118 39q-67 0 -114 -28v-123q-34 -17 -60 -17q-78 0 -78 70t83.5 118t203.5 48q118 0 192 -55q76 -58 76 -154q0 -143 -204 -197q96 -3 161 -49q76 -53 76 -147zM1450 317v371l-320 -371h320z" />
    <glyph glyph-name="Eth" unicode="&#xd0;" horiz-adv-x="1432" 
d="M1346 686q0 -304 -178 -489q-190 -197 -531 -197h-571v88l108 8q43 3 43 45v527h-186v104h186v461q0 39 -43 43l-108 10v88h526q337 0 534 -160q220 -178 220 -528zM1114 686q0 590 -532 590h-158v-504h328v-104h-328v-570h160q530 0 530 588z" />
    <glyph glyph-name="multiply" unicode="&#xd7;" horiz-adv-x="1706" 
d="M1417 139l-92 -92l-471 473l-473 -473l-90 92l471 471l-471 473l90 93l473 -474l471 474l92 -93l-473 -473z" />
    <glyph glyph-name="Yacute" unicode="&#xdd;" horiz-adv-x="1280" 
d="M975 1769q0 -53 -47 -83l-312 -199h-116l272 317q48 56 109 56q94 0 94 -91zM1260 1288l-111 -20l-412 -684v-443q0 -42 43 -45l131 -8v-88h-551v88l127 8q45 3 45 45v412l-393 711l-119 24v86h486v-86l-103 -10q-44 -4 -24 -41l287 -537l317 531q4 7 4 14q0 25 -29 29
l-114 14v86h416v-86z" />
    <glyph glyph-name="Thorn" unicode="&#xde;" horiz-adv-x="1157" 
d="M1110 709q0 -209 -150 -327q-144 -113 -385 -112q-53 0 -147 11v-140q0 -42 45 -45l119 -8v-88h-520v88l106 8q45 3 45 45v1092q0 42 -45 45l-106 8v88h520v-88l-119 -8q-45 -3 -45 -45v-115l141 -2q283 -4 410 -97q131 -96 131 -310zM897 709q0 325 -371 311
q-6 4 -98 -4v-633q40 -4 119 -8q350 -3 350 334z" />
    <glyph glyph-name="eth" unicode="&#xf0;" horiz-adv-x="1102" 
d="M1034 555q0 -261 -135 -419q-133 -154 -346 -154q-217 0 -350 144t-133 374q0 224 142 362q138 135 353 135q46 0 137 -14q-26 46 -92 135q-56 77 -65 86l-260 -155l-45 81l235 142l-72 82l-172 22v58l252 73l148 -149l223 133l47 -82l-209 -127q342 -391 342 -727z
M836 514q0 236 -80 367q-97 26 -156 26q-157 0 -240 -115q-77 -108 -77 -294q0 -180 64 -293q73 -131 212 -131q140 0 214 139q63 118 63 301z" />
    <glyph glyph-name="yacute" unicode="&#xfd;" horiz-adv-x="1085" 
d="M903 1409q0 -50 -49 -82l-309 -199h-117l272 318q47 55 109 55q94 0 94 -92zM1065 909l-107 -12l-393 -960q-89 -217 -176 -304q-79 -79 -178 -79q-69 0 -111 36q-39 33 -39 82q0 68 66 123l192 -88q93 93 162 295l-348 895l-113 12v78h453v-78l-98 -6q-33 -2 -33 -33
q0 -6 2 -12l238 -606l243 606q6 15 -2.5 29.5t-25.5 15.5l-97 6v78h365v-78z" />
    <glyph glyph-name="thorn" unicode="&#xfe;" horiz-adv-x="1149" 
d="M1087 528q0 -244 -140 -388t-380 -144q-70 0 -178 16v-327q0 -39 43 -43l121 -11v-77h-498v77l101 11q43 5 43 43v1677h-158v68l266 79h82v-622q167 125 309 125q159 0 270 -126q119 -136 119 -358zM885 500q0 165 -77 266.5t-214 101.5q-63 0 -136 -29l-69 -32v-686
q80 -29 164 -29q159 0 250 124q82 113 82 284z" />
    <glyph glyph-name="Scaron" unicode="&#x160;" horiz-adv-x="1145" 
d="M932 1835l-258 -348h-154l-258 348h123l213 -205l211 205h123zM1030 385q0 -171 -127 -283q-146 -127 -416 -127q-205 0 -364 68v363h129l27 -240q8 -24 30 -35q89 -41 211 -41q134 0 217.5 62t83.5 172q0 112 -143 206q-62 41 -215 107q-140 60 -209 123
q-109 100 -109 246q0 179 135 288q131 105 338 105q168 0 363 -62v-319h-119l-31 201q-7 16 -28 30q-60 39 -176 39q-126 0 -198.5 -63.5t-72.5 -169.5q0 -163 285 -271q200 -76 287 -158q102 -96 102 -241z" />
    <glyph glyph-name="scaron" unicode="&#x161;" horiz-adv-x="844" 
d="M776 1475l-258 -347h-153l-256 347h122l211 -203l211 203h123zM762 297q0 -150 -103.5 -232.5t-287.5 -82.5q-172 0 -285 45v274h104q2 -10 25 -176q71 -51 182 -51q84 0 136 47q49 44 49 108q0 75 -62 125q-39 30 -178 95q-125 58 -179 112q-63 64 -63 154
q0 138 97 217.5t272 79.5q158 0 262 -47v-242h-106l-19 147q-57 45 -153 45q-166 0 -166 -137q0 -67 48 -111q44 -40 177 -100q123 -56 179 -110q71 -68 71 -160z" />
    <glyph glyph-name="Zcaron" unicode="&#x17d;" horiz-adv-x="1202" 
d="M981 1835l-256 -348h-156l-256 348h123l211 -205l211 205h123zM1110 0h-1018v90l762 1182h-524q-35 0 -41 -33l-33 -192h-121v327h965v-94l-764 -1176h577q34 0 39 33l37 242h121v-379z" />
    <glyph glyph-name="zcaron" unicode="&#x17e;" horiz-adv-x="973" 
d="M827 1475l-258 -347h-153l-258 347h123l211 -203l213 203h122zM899 0h-807v109l543 782h-361q-28 0 -34 -41l-23 -154h-104v291h757v-84l-561 -805h416q35 0 41 45l22 166h111v-309z" />
    <glyph glyph-name="uni02C9" unicode="&#x2c9;" horiz-adv-x="616" 
d="M616 1198h-616v131h616v-131z" />
    <glyph glyph-name="number" horiz-adv-x="2" 
d="M750 1638q0 -37 -28.5 -64.5t-66.5 -27.5t-65 27t-27 65q0 37 27 64t65 27t66.5 -27t28.5 -64z" />
    <glyph glyph-name="number2" horiz-adv-x="2" 
d="M903 1638q0 -38 -27.5 -65t-66.5 -27q-38 0 -64 27t-26 65t26 64.5t64 26.5t66 -27t28 -64zM596 1638q0 -38 -28 -65t-66 -27q-37 0 -63.5 27t-26.5 65q0 37 26.5 64t63.5 27q38 0 66 -27t28 -64z" />
    <glyph glyph-name="mu" unicode="&#x3bc;" horiz-adv-x="1137" 
d="M1094 299q0 -77 -52 -174q-78 -145 -221 -145q-83 0 -123 69q-33 57 -30 144q-91 -216 -281 -216q-95 0 -155 62q-56 59 -66 156q-6 -30 -72 -451q-26 -162 -96 -162q-84 0 -84 78q0 45 14 96q114 411 265 1129h161l-106 -510q-10 -48 -10 -88q0 -172 155 -172
q191 0 242 237l115 533h163l-122 -578q-9 -45 -9 -80q0 -110 88 -110q66 0 107 55q20 27 61 125q15 37 33 37q23 0 23 -35z" />
    <glyph glyph-name="uni0591" unicode="&#x591;" 
d="M401 -607q0 -47 -47 -47t-47 47q0 91 -10 115q-20 50 -99 50q-75 0 -94 -50q-10 -25 -10 -115q0 -47 -47 -47t-47 47q0 111 20 162q32 79 126 93v151q0 47 47 47q48 0 48 -47v-149q102 -12 137 -90q23 -51 23 -167z" />
    <glyph glyph-name="uni0592" unicode="&#x592;" 
d="M352 1950q0 -37 -27.5 -63.5t-64.5 -26.5q-38 0 -65 26.5t-27 63.5q0 38 27 65t65 27t65 -27t27 -65zM520 1636q0 -36 -28.5 -63t-65.5 -27q-38 0 -65 26.5t-27 63.5q0 39 27 66t65 27t66 -27.5t28 -65.5zM185 1638q0 -38 -27.5 -65t-65.5 -27t-65 27t-27 65t27 65.5
t65 27.5q37 0 65 -28t28 -65z" />
    <glyph glyph-name="uni0593" unicode="&#x593;" 
d="M344 1548h-344l199 166h-199l199 164h-199l301 254h43l-201 -168h201l-197 -166h197l-197 -166h197v-84z" />
    <glyph glyph-name="uni0594" unicode="&#x594;" 
d="M284 1952q0 -39 -28 -66.5t-66 -27.5t-64 27.5t-26 66.5q0 37 26 63.5t64 26.5t66 -26.5t28 -63.5zM284 1638q0 -38 -27.5 -65t-66.5 -27q-38 0 -64 27t-26 65t26 64.5t64 26.5t66 -27t28 -64z" />
    <glyph glyph-name="uni0595" unicode="&#x595;" 
d="M397 1952q0 -39 -27.5 -66.5t-66.5 -27.5q-37 0 -63.5 27.5t-26.5 66.5q0 37 26.5 63.5t63.5 26.5q39 0 66.5 -26.5t27.5 -63.5zM397 1638q0 -38 -27.5 -65t-66.5 -27q-37 0 -63.5 27t-26.5 65q0 37 26.5 64t63.5 27q39 0 66.5 -27t27.5 -64zM117 1546h-117v496h117v-496
z" />
    <glyph glyph-name="uni0596" unicode="&#x596;" 
d="M237 -550q18 -18 18 -41q0 -56 -67 -56q-65 0 -125 96q-63 102 -63 230v121q0 47 47 47t47 -47v-95q0 -110 57 -179z" />
    <glyph glyph-name="uni0597" unicode="&#x597;" 
d="M363 1866l-182 -182l-179 182l179 184z" />
    <glyph glyph-name="uni0598" unicode="&#x598;" 
d="M724 1735q0 -86 -67.5 -142t-171.5 -56q-76 0 -140 69q-4 5 -93 129q-50 69 -93 69q-31 0 -54.5 -25t-23.5 -59q0 -39 31 -70q14 -14 14 -32q0 -47 -50 -46q-35 1 -60 50q-20 41 -20 79q0 86 67.5 142t171.5 56q76 0 140 -69q4 -5 93 -130q50 -69 93 -69q31 0 54.5 25.5
t23.5 59.5q0 39 -31 70q-14 14 -14 32q0 47 50 46q35 -1 60 -50q20 -41 20 -79z" />
    <glyph glyph-name="uni0599" unicode="&#x599;" 
d="M255 1592q0 -47 -47 -47t-47 47v95q0 110 -57 179l-85 76q-19 19 -19 41q0 56 67 56q65 0 125 -96q63 -102 63 -230v-121z" />
    <glyph glyph-name="uni059A" unicode="&#x59a;" horiz-adv-x="2" 
d="M1436 -590l-68 -94l-378 264l378 266l68 -94l-244 -172z" />
    <glyph glyph-name="uni059B" unicode="&#x59b;" 
d="M353 -322q0 -128 -63 -230q-60 -96 -125 -96q-67 0 -67 56q0 23 18 41l85 76q57 69 57 179v94q0 48 48 48q47 0 47 -48v-120zM185 -321q0 -38 -28 -65.5t-66 -27.5q-37 0 -64 27.5t-27 65.5t26.5 64.5t64.5 26.5t66 -27t28 -64z" />
    <glyph glyph-name="uni059C" unicode="&#x59c;" 
d="M237 1942l-86 -76q-57 -69 -57 -179v-95q0 -47 -47 -47t-47 47v121q0 128 63 230q60 96 125 96q67 0 67 -56q0 -23 -18 -41z" />
    <glyph glyph-name="uni059D" unicode="&#x59d;" horiz-adv-x="2" 
d="M815 1942l-86 -76q-57 -69 -57 -179v-95q0 -47 -47 -47t-47 47v121q0 128 63 230q60 96 125 96q67 0 67 -56q0 -23 -18 -41z" />
    <glyph glyph-name="uni059E" unicode="&#x59e;" 
d="M455 1942l-85 -76q-57 -69 -57 -179v-95q0 -47 -47 -47t-47 47v121q0 128 63 230q60 96 125 96q67 0 67 -56q0 -22 -19 -41zM238 1942l-85 -76q-57 -69 -57 -179v-95q0 -47 -48 -47q-47 0 -47 47v121q0 128 63 230q60 96 125 96q67 0 67 -56q0 -23 -18 -41z" />
    <glyph glyph-name="uni059F" unicode="&#x59f;" 
d="M421 1976q0 -78 -52 -133l150 -149l150 149q-50 56 -50 133q0 85 59.5 145t145.5 60q85 0 146 -60t61 -145t-61 -146t-146 -61q-74 0 -135 52l-170 -170l-170 170q-61 -52 -135 -52q-86 0 -146.5 60.5t-60.5 146.5q0 85 60.5 145t146.5 60q85 0 146 -60t61 -145z
M1000 1976q0 73 -52 124.5t-124 51.5t-124 -51.5t-52 -124.5q0 -72 52 -124t124 -52t124 52t52 124zM390 1976q0 73 -52 124.5t-124 51.5q-74 0 -125 -51.5t-51 -124.5q0 -72 51 -124t125 -52q72 0 124 52t52 124z" />
    <glyph glyph-name="uni05A0" unicode="&#x5a0;" 
d="M171 1774l-61 -232l-31 8l62 232q-60 22 -98 75t-38 119q0 85 60.5 145t146.5 60q85 0 145 -60t60 -145q0 -86 -60 -146.5t-145 -60.5q-16 0 -41 5zM386 1976q0 73 -51 124.5t-123 51.5t-124 -51.5t-52 -124.5q0 -72 52 -124t124 -52t123 52t51 124z" />
    <glyph glyph-name="uni05A1" unicode="&#x5a1;" 
d="M349 1858q0 -79 -68 -125q-64 -43 -165 -43v-145h-113v494h113v-272q120 0 119 117l-1 155h115v-181z" />
    <glyph glyph-name="uni05A3" unicode="&#x5a3;" 
d="M503 -657h-503v131h374v372h129v-503z" />
    <glyph glyph-name="uni05A4" unicode="&#x5a4;" 
d="M446 -590l-68 -94l-378 264l378 266l68 -94l-244 -172z" />
    <glyph glyph-name="uni05A5" unicode="&#x5a5;" 
d="M269 -321q0 -128 -63 -230q-60 -97 -125 -97q-67 0 -67 56q0 23 18 41l85 76q57 69 57 179v95q0 47 48 47q47 0 47 -47v-120z" />
    <glyph glyph-name="uni05A6" unicode="&#x5a6;" 
d="M473 -321q0 -128 -63 -230q-60 -97 -125 -97q-67 0 -67 56q0 23 18 41l85 76q57 69 57 179v95q0 47 48 47q47 0 47 -47v-120zM255 -321q0 -128 -63 -230q-60 -97 -125 -97q-67 0 -67 56q0 22 19 41l85 76q57 69 57 179v95q0 47 47 47t47 -47v-120z" />
    <glyph glyph-name="uni05A7" unicode="&#x5a7;" 
d="M334 -545q20 -29 20 -56q0 -54 -55 -54h-256q-47 0 -47 47t47 47h178l-203 297q-18 27 -18 55q0 57 59 57h253q47 0 47 -50q0 -49 -47 -49h-182z" />
    <glyph glyph-name="uni05A8" unicode="&#x5a8;" 
d="M255 1592q0 -47 -47 -47t-47 47v95q0 110 -57 179l-85 76q-19 19 -19 41q0 56 67 56q65 0 125 -96q63 -102 63 -230v-121z" />
    <glyph glyph-name="uni05A9" unicode="&#x5a9;" 
d="M342 1550l-31 -8l-61 232q-25 -5 -37 -5q-85 0 -145 60.5t-60 146.5q0 85 60 145t145 60q86 0 146.5 -60t60.5 -145q0 -66 -39.5 -120t-100.5 -74zM389 1976q0 73 -52 124.5t-124 51.5t-123 -51.5t-51 -124.5q0 -72 51 -124t123 -52t124 52t52 124z" />
    <glyph glyph-name="uni05AA" unicode="&#x5aa;" 
d="M241 -607q0 -47 -48 -47q-47 0 -47 47v151q-94 14 -126 93q-20 51 -20 162q0 47 47 47t47 -47q0 -90 10 -115q19 -50 94 -50q79 0 99 50q10 24 10 115q0 47 47 47t47 -47q0 -116 -23 -167q-35 -78 -137 -90v-149z" />
    <glyph glyph-name="uni05AB" unicode="&#x5ab;" 
d="M447 1659l-68 -96l-379 266l379 266l68 -96l-244 -170z" />
    <glyph glyph-name="uni05AC" unicode="&#x5ac;" 
d="M498 1544h-502v129h373v375h129v-504z" />
    <glyph glyph-name="uni05AD" unicode="&#x5ad;" horiz-adv-x="2" 
d="M1220 -550q18 -18 18 -41q0 -56 -67 -56q-65 0 -125 96q-63 102 -63 230v121q0 47 47 47t47 -47v-95q0 -110 57 -179z" />
    <glyph glyph-name="uni05AE" unicode="&#x5ae;" 
d="M489 1735q0 -86 -67.5 -142t-171.5 -56q-76 0 -140 69q-4 5 -93 129q-50 69 -93 69q-31 0 -54.5 -25t-23.5 -59q0 -39 31 -70q14 -14 14 -32q0 -47 -50 -46q-35 1 -60 50q-20 41 -20 79q0 86 67.5 142t171.5 56q76 0 140 -69q4 -5 93 -130q50 -69 93 -69q31 0 54.5 25.5
t23.5 59.5q0 39 -31 70q-14 14 -14 32q0 47 50 46q35 -1 60 -50q20 -41 20 -79z" />
    <glyph glyph-name="uni05AF" unicode="&#x5af;" 
d="M213 2046q87 0 150 -62.5t63 -150.5t-63 -150.5t-150 -62.5q-89 0 -151 62.5t-62 150.5t62 150.5t151 62.5zM213 1987q-65 0 -109.5 -45.5t-44.5 -108.5t44.5 -108.5t109.5 -45.5q62 0 106.5 45.5t44.5 108.5t-44.5 108.5t-106.5 45.5z" />
    <glyph glyph-name="uni05B0" unicode="&#x5b0;" 
d="M187 -244q0 -38 -28.5 -66t-66.5 -28t-65 28t-27 66q0 37 27 63.5t65 26.5t66.5 -26.5t28.5 -63.5zM187 -557q0 -37 -29 -64.5t-66 -27.5q-38 0 -65 27.5t-27 64.5q0 38 27 64t65 26t66.5 -26t28.5 -64z" />
    <glyph glyph-name="uni05B1" unicode="&#x5b1;" 
d="M854 -244q0 -38 -27.5 -66t-64.5 -28q-38 0 -65 28t-27 66q0 37 27 63.5t65 26.5q37 0 64.5 -26.5t27.5 -63.5zM854 -557q0 -37 -27.5 -64.5t-64.5 -27.5q-38 0 -65 27.5t-27 64.5q0 38 26.5 64t65.5 26q37 0 64.5 -26t27.5 -64zM520 -246q0 -36 -28.5 -64t-65.5 -28
q-38 0 -64 27.5t-26 64.5q0 39 26 65.5t64 26.5q37 0 65.5 -27t28.5 -65zM184 -246q0 -37 -28 -64.5t-66 -27.5q-36 0 -63 27.5t-27 64.5q0 38 26.5 65t63.5 27q39 0 66.5 -27t27.5 -65zM352 -557q0 -37 -28 -64.5t-66 -27.5q-37 0 -63.5 27.5t-26.5 64.5q0 38 26.5 64
t63.5 26q39 0 66.5 -26t27.5 -64z" />
    <glyph glyph-name="uni05B2" unicode="&#x5b2;" 
d="M743 -244q0 -38 -27.5 -66t-64.5 -28q-38 0 -64 27.5t-26 66.5q0 38 26 64t64 26q37 0 64.5 -26.5t27.5 -63.5zM743 -557q0 -37 -27.5 -64.5t-64.5 -27.5q-38 0 -64 27.5t-26 64.5q0 38 26 64t64 26q37 0 64.5 -26t27.5 -64zM448 -268h-448v114h448v-114z" />
    <glyph glyph-name="uni05B3" unicode="&#x5b3;" 
d="M743 -244q0 -38 -27.5 -66t-64.5 -28q-38 0 -64 27.5t-26 66.5q0 38 26 64t64 26q37 0 64.5 -26.5t27.5 -63.5zM743 -557q0 -37 -27.5 -64.5t-64.5 -27.5q-38 0 -64 27.5t-26 64.5q0 38 26 64t64 26q37 0 64.5 -26t27.5 -64zM317 -553q0 -40 -28 -68t-68 -28
q-41 0 -69.5 28t-28.5 68q0 39 90 285h-213v114h448v-114h-221q90 -246 90 -285z" />
    <glyph glyph-name="uni05B4" unicode="&#x5b4;" 
d="M187 -244q0 -38 -28.5 -66t-66.5 -28t-65 28t-27 66q0 37 27 63.5t65 26.5t66.5 -26.5t28.5 -63.5z" />
    <glyph glyph-name="uni05B5" unicode="&#x5b5;" 
d="M518 -246q0 -37 -28 -64.5t-66 -27.5q-37 0 -63.5 27.5t-26.5 64.5q0 38 26.5 65t63.5 27q38 0 66 -27t28 -65zM182 -246q0 -37 -27 -64.5t-65 -27.5t-64 27.5t-26 64.5q0 39 26 65.5t64 26.5t65 -26.5t27 -65.5z" />
    <glyph glyph-name="uni05B6" unicode="&#x5b6;" 
d="M518 -246q0 -37 -28 -64.5t-66 -27.5q-37 0 -63.5 27.5t-26.5 64.5q0 38 26.5 65t63.5 27q38 0 66 -27t28 -65zM182 -246q0 -37 -27 -64.5t-65 -27.5t-64 27.5t-26 64.5q0 39 26 65.5t64 26.5t65 -26.5t27 -65.5zM350 -557q0 -37 -27 -64.5t-65 -27.5q-37 0 -63.5 27.5
t-26.5 64.5q0 38 26.5 64t63.5 26q39 0 65.5 -26t26.5 -64z" />
    <glyph glyph-name="uni05B7" unicode="&#x5b7;" 
d="M449 -268h-449v114h449v-114z" />
    <glyph glyph-name="uni05B8" unicode="&#x5b8;" 
d="M318 -553q0 -40 -29 -68t-70 -28q-39 0 -67.5 28t-28.5 68q0 59 90 285h-213v114h449v-114h-221q90 -246 90 -285z" />
    <glyph glyph-name="uni05B9" unicode="&#x5b9;" 
d="M195 1640q0 -39 -29.5 -68.5t-69.5 -29.5q-39 0 -67.5 29t-28.5 69t28 68.5t68 28.5t69.5 -28.5t29.5 -68.5z" />
    <glyph glyph-name="uni05BA" unicode="&#x5ba;" 
d="M545 1640q0 -39 -29.5 -68.5t-69.5 -29.5q-39 0 -67.5 29t-28.5 69t28 68.5t68 28.5t69.5 -28.5t29.5 -68.5z" />
    <glyph glyph-name="uni05BB" unicode="&#x5bb;" 
d="M166 -233q0 -34 -25.5 -59t-58.5 -25q-34 0 -58 25t-24 59q0 33 24 57t58 24t59 -24t25 -57zM358 -489q0 -34 -25 -59t-59 -25q-33 0 -57.5 25t-24.5 59q0 33 24 57t58 24t59 -24t25 -57zM553 -745q0 -34 -25 -58t-59 -24t-58 24t-24 58q0 33 24 57t58 24t59 -24t25 -57z
" />
    <glyph glyph-name="uni05BC" unicode="&#x5bc;" 
d="M195 678q0 -40 -29.5 -68t-69.5 -28t-68 28t-28 68t28 68t68 28t69.5 -28t29.5 -68z" />
    <glyph glyph-name="uni05BD" unicode="&#x5bd;" 
d="M117 -649h-117v495h117v-495z" />
    <glyph glyph-name="uni05BE" unicode="&#x5be;" horiz-adv-x="952" 
d="M862 1188h-772v166h772v-166z" />
    <glyph glyph-name="uni05BF" unicode="&#x5bf;" 
d="M540 1546h-415v115h415v-115z" />
    <glyph glyph-name="uni05C0" unicode="&#x5c0;" horiz-adv-x="316" 
d="M219 0h-117v1358h117v-1358z" />
    <glyph glyph-name="uni05C1" unicode="&#x5c1;" horiz-adv-x="2" 
d="M1320 1638q0 -37 -28.5 -64.5t-66.5 -27.5t-65 27t-27 65q0 37 27 64t65 27t66.5 -27t28.5 -64z" />
    <glyph glyph-name="uni05C2" unicode="&#x5c2;" horiz-adv-x="2" 
d="M380 1638q0 -37 -28.5 -64.5t-66.5 -27.5t-65 27t-27 65q0 37 27 64t65 27t66.5 -27t28.5 -64z" />
    <glyph glyph-name="uni05C3" unicode="&#x5c3;" horiz-adv-x="813" 
d="M483 166q-120 -73 -188 -191q-68 118 -189 191q121 70 189 190q68 -120 188 -190zM483 846q-120 -70 -188 -191q-68 121 -189 191q118 68 189 190q71 -122 188 -190z" />
    <glyph glyph-name="uni05C4" unicode="&#x5c4;" 
d="M379 1631q-96 -59 -150 -153q-54 94 -151 153q97 56 151 152q54 -96 150 -152z" />
    <glyph glyph-name="uni05D0" unicode="&#x5d0;" horiz-adv-x="1221" 
d="M1143 213q0 -96 -65 -177q-55 -69 -91 -69q-18 0 -18 29q0 4 13 24t13 35q0 49 -66 124l-102 102l-501 501q-56 -83 -56 -147q0 -87 123 -234.5t123 -234.5q0 -71 -54 -118.5t-132 -47.5h-267l11 51q131 17 131 88q0 35 -59.5 146.5t-59.5 179.5q0 157 190 366l-49 50
q-90 90 -121 148q-36 70 -36 169q0 96 63 177q54 69 90 69q19 0 19 -29q0 -3 -13.5 -23t-13.5 -34q0 -50 66 -124l102 -101l299 -299l143 180q-74 56 -99 105q-17 35 -17 91q0 97 71 172q57 62 97 62q18 0 18 -19q0 -4 -5 -9t-5 -19q0 -49 108 -127q129 -94 129 -238
q0 -100 -44 -154q-34 -42 -74 -42q-22 0 -40 34q-30 55 -83 101l-150 -187l252 -254q90 -91 122 -148q38 -70 38 -169z" />
    <glyph glyph-name="uni05D1" unicode="&#x5d1;" horiz-adv-x="1362" 
d="M1307 340l-179 -340h-1099l164 340h876l-16 567q-4 111 -172 111h-625q-79 0 -109 54q-28 50 -28 171q0 201 57 201q12 0 29.5 -43t70.5 -43h586q281 0 281 -297v-721h164z" />
    <glyph glyph-name="uni05D2" unicode="&#x5d2;" horiz-adv-x="741" 
d="M686 248q0 -248 -29 -248q-20 0 -22 27q-5 47 -63 232q-54 169 -54 284q0 64 11.5 202.5t11.5 161.5q0 111 -185 111h-100q-79 0 -109 54q-28 50 -28 171q0 201 57 201q12 0 29.5 -43t70.5 -43h62q278 0 278 -297q0 -51 -10 -103.5t-10 -134.5q0 -59 45 -266.5t45 -308.5
zM545 340l-113 -340h-377l86 340h404z" />
    <glyph glyph-name="uni05D3" unicode="&#x5d3;" horiz-adv-x="1380" 
d="M1280 1188q0 -72 -37.5 -119.5t-87.5 -50.5l39 -854q1 -22 -55 -93t-72 -71q-27 0 -27 43q0 112 37 975h-833q-79 0 -110 54q-28 50 -28 171q0 201 58 201q10 0 28.5 -43t71.5 -43h881q59 0 97 -47t38 -123z" />
    <glyph glyph-name="uni05D4" unicode="&#x5d4;" horiz-adv-x="1380" 
d="M1280 1188q0 -75 -39.5 -122.5t-91.5 -47.5h-8l53 -854q1 -22 -55 -93t-72 -71q-27 0 -27 43q0 176 21 975h-817q-79 0 -110 54q-28 50 -28 171q0 201 58 201q10 0 28.5 -43t71.5 -43h881q59 0 97 -47t38 -123zM330 319q0 -201 -31 -233q-21 -22 -69 -52q-53 -34 -74 -34
q-39 0 -39 41q0 25 15.5 52.5t32.5 54.5q23 54 23 163q0 35 -3 96t-3 117q0 65 41 136q39 67 66 67q26 0 26 -18q0 -8 -9 -38.5t-9 -68.5q0 -30 16.5 -109t16.5 -174z" />
    <glyph glyph-name="uni05D5" unicode="&#x5d5;" horiz-adv-x="690" 
d="M567 164q0 -23 -56.5 -93.5t-72.5 -70.5q-24 0 -24 43q0 27 34.5 394.5t34.5 463.5q0 117 -127 117h-137q-79 0 -109 54q-28 50 -28 171q0 201 55 201q12 0 30 -43t71 -43h127q200 0 200 -297z" />
    <glyph glyph-name="uni05D6" unicode="&#x5d6;" horiz-adv-x="707" 
d="M637 1157q0 -86 -38 -159q-34 -64 -60 -64q-13 0 -13 16q0 4 2 6t2 13q0 32 -141 49q-49 -88 -49 -133q0 -28 46 -252.5t46 -253.5q0 -113 -44 -249q-43 -130 -73 -130q-22 0 -22 23q0 -2 16.5 49t16.5 88q0 21 -45 242t-45 257q0 185 94 365l-35 2q-122 7 -162.5 48
t-40.5 161q0 64 33.5 136.5t64.5 72.5q21 0 21 -21q0 -6 -3 -11.5t-3 -10.5q0 -28 198 -43q234 -18 234 -201z" />
    <glyph glyph-name="uni05D7" unicode="&#x5d7;" horiz-adv-x="1380" 
d="M1280 1188q0 -75 -39.5 -122.5t-91.5 -47.5h-8l53 -854q1 -22 -55 -93t-72 -71q-27 0 -27 43q0 176 21 975h-717q-76 -71 -76 -219q0 -11 31 -196t31 -284q0 -201 -31 -233q-21 -22 -69 -52q-53 -34 -74 -34q-39 0 -39 41q0 25 14 53q33 66 33 232q0 33 -5 167.5
t-5 190.5q0 211 106 334h-16q-79 0 -110 54q-28 50 -28 171q0 201 58 201q10 0 28.5 -43t71.5 -43h881q59 0 97 -47t38 -123z" />
    <glyph glyph-name="uni05D8" unicode="&#x5d8;" horiz-adv-x="1356" 
d="M1253 719q0 -150 -149 -719h-938q2 138 -22 329q-25 198 -25 316q0 200 121 381q-77 33 -103 82q-22 40 -22 127q0 90 44 157q35 52 56 52t21 -21q0 -6 -3.5 -11.5t-3.5 -10.5q0 -13 47 -28q86 -30 132 -50q69 -31 91.5 -65.5t22.5 -112.5q0 -82 -45 -166
q-38 -70 -53 -70q-12 0 -12 17q0 3 2 5t2 11q0 14 -117 57q-88 -152 -88 -258q0 -87 38 -220q41 -145 44 -181h805q76 231 76 328q0 172 -89 267q-79 85 -198 85q-110 0 -165 -87q-44 -68 -44 -169q0 -15 3 -45t3 -39q0 -18 -13 -36.5t-28 -18.5q-57 0 -57 141q0 63 42 195
q48 150 58 235q3 21 3 44q0 25 -4 61.5t-4 47.5q0 23 9 33q7 7 39 7q77 0 173 -31q121 -38 190 -105q100 -98 136 -207q27 -79 27 -204q0 -20 -1 -60.5t-1 -62.5z" />
    <glyph glyph-name="uni05D9" unicode="&#x5d9;" horiz-adv-x="691" 
d="M580 1061q0 -147 -20 -262q-21 -121 -52 -121q-28 0 -33 15v32q0 6 10.5 68.5t10.5 107.5q0 117 -166 117h-99q-79 0 -110 54q-29 50 -29 171q0 201 60 201q10 0 28.5 -43t71.5 -43h59q267 0 269 -297z" />
    <glyph glyph-name="uni05DA" unicode="&#x5da;" horiz-adv-x="1380" 
d="M1280 1188q0 -72 -37.5 -119.5t-87.5 -50.5l39 -1512q1 -21 -55 -91t-72 -70q-27 0 -27 43q0 52 15 738q16 738 22 892h-833q-79 0 -110 54q-28 50 -28 171q0 201 58 201q10 0 28.5 -43t71.5 -43h881q59 0 97 -47t38 -123z" />
    <glyph glyph-name="uni05DB" unicode="&#x5db;" horiz-adv-x="1262" 
d="M1198 678q0 -392 -168 -544q-148 -134 -500 -134h-501l164 340h579q171 0 265 84q98 88 98 254q0 340 -363 340h-516q-79 0 -109 54q-28 50 -28 171q0 201 57 201q12 0 29.5 -43t70.5 -43h459q246 0 352 -150q111 -156 111 -530z" />
    <glyph glyph-name="uni05DC" unicode="&#x5dc;" horiz-adv-x="1343" 
d="M1225 782q0 -222 -219 -381q-143 -103 -221 -218l-80 -148q-31 -55 -84 -55q-37 0 -64 27q-31 30 -31 77q0 69 67 149q84 102 241 168q199 86 263 176q42 59 42 168q0 119 -54 193q-56 78 -149 78h-633q-127 0 -172 50q-39 44 -39 159v321q0 117 41 200q26 54 76 102
q41 39 41 48q0 35 -79 58.5t-79 64.5q0 58 34 110q29 44 44 44q16 0 16 -10q0 -2 -2 -8.5t-2 -8.5q0 -9 44 -24q56 -19 82 -40q44 -35 44 -91q0 -30 -25 -67q-34 -49 -48 -91q-25 -77 -25 -207v-182q0 -48 13 -65q17 -21 69 -21h672q152 0 172 -127l37 -234q8 -52 8 -215z
" />
    <glyph glyph-name="uni05DD" unicode="&#x5dd;" horiz-adv-x="1350" 
d="M358 1018q-118 -134 -114 -264l12 -414h877l-17 567q-2 69 -39 92q-30 19 -106 19h-613zM1231 0h-1104v715q0 163 119 303q-73 3 -101 57q-26 50 -26 168q0 201 57 201q12 0 29.5 -43t70.5 -43h676q279 0 279 -297v-1061z" />
    <glyph glyph-name="uni05DE" unicode="&#x5de;" horiz-adv-x="1329" 
d="M1229 719q0 -209 -125 -719h-655l75 340h574q37 143 37 301q0 166 -123 272.5t-318 106.5q-168 0 -297 -120t-129 -267q0 -96 18.5 -175t18.5 -139q0 -197 -33 -233q-78 -86 -116 -86q-39 0 -39 41q0 25 14 53q33 66 33 232q0 32 -5 122.5t-5 147.5q0 184 133 317
q17 18 69 58l-77 26q-31 15 -68 31q-51 32 -67 78q-13 38 -13 129q0 89 63 157q48 52 74 52q19 0 19 -21q0 -6 -2 -11.5t-2 -10.5q0 -25 137 -72q71 -24 96 -61t25 -123q0 -43 -13 -80l93 26q65 22 65 56q0 44 -13.5 113t-13.5 92q0 66 63 66q73 0 179 -44q119 -50 186 -123
q143 -153 143 -447q0 -18 -1 -47v-38z" />
    <glyph glyph-name="uni05DF" unicode="&#x5df;" horiz-adv-x="752" 
d="M567 1106q0 -61 -72 -206q-70 -141 -65 -236l59 -1158q2 -21 -54.5 -91t-72.5 -70q-24 0 -24 43v1257q0 116 42 199t42 98q0 28 -62 45l-116 25q-84 21 -112 77q-19 40 -19 132q0 91 36 158q29 53 48 53q18 0 18 -21q0 -6 -2 -12t-2 -10q0 -13 83 -30q119 -25 171 -42
q64 -22 87 -82q15 -43 15 -129z" />
    <glyph glyph-name="uni05E0" unicode="&#x5e0;" horiz-adv-x="717" 
d="M662 272q0 -124 -41 -272h-566l62 340h407q-6 198 -6 293q0 63 11.5 157t11.5 117q0 111 -185 111h-100q-79 0 -109 54q-28 50 -28 171q0 201 57 201q12 0 29.5 -43t70.5 -43h62q278 0 278 -297q0 -51 -12 -116.5t-12 -147.5q0 -63 35 -252.5t35 -272.5z" />
    <glyph glyph-name="uni05E1" unicode="&#x5e1;" horiz-adv-x="1274" 
d="M373 1018q-90 -74 -135 -185q-31 -79 -31 -143q0 -154 93 -260q97 -111 243 -111h209q162 0 272.5 104.5t110.5 254.5q0 176 -74 253q-83 87 -289 87h-399zM1198 678q0 -312 -127 -495q-145 -210 -434 -210q-255 0 -382 172q-114 152 -114 418q0 303 152 455h-49
q-79 0 -110 54q-28 50 -28 171q0 201 58 201q10 0 28.5 -43t71.5 -43h471q228 0 347 -178q116 -174 116 -502z" />
    <glyph glyph-name="uni05E2" unicode="&#x5e2;" horiz-adv-x="1213" 
d="M1150 1133q0 -66 -41 -164q-63 -151 -86 -228q-29 -97 -44 -241q-15 -137 -28 -174q-35 -102 -85 -144q-74 -62 -255 -92l-543 -90l50 348l288 47q12 21 12 46q0 49 -82 196.5t-82 239.5q0 71 40 135q-83 22 -110 78q-19 40 -19 131q0 92 36 158q28 53 48 53q18 0 18 -21
q0 -6 -2 -12t-2 -10q0 -14 58 -30q120 -34 145 -42q68 -23 93 -63q21 -35 21 -109q0 -82 -33 -158q-27 -63 -40 -63q-23 0 -23 14v18q0 10 -41 18q-48 9 -96 17q-15 -30 -15 -64q0 -61 85 -194.5t85 -212.5q0 -55 -30 -108l153 18q136 16 184 48q45 30 79 120l63 170
q23 63 52 111q22 38 22 41q0 23 -54 44l-139 46t-95 72q-23 44 -23 139q0 91 43 158q34 53 55 53q18 0 18 -21q0 -6 -2 -12t-2 -10q0 -26 137 -72q187 -63 187 -184z" />
    <glyph glyph-name="uni05E3" unicode="&#x5e3;" horiz-adv-x="1262" 
d="M1182 -494q0 -21 -57 -91t-72 -70q-25 0 -25 43q0 27 35 722t35 791q0 117 -178 117h-592q-95 -88 -95 -137q0 -36 36 -45q15 -5 65 -5q19 0 73.5 3.5t108.5 3.5q49 0 88 -37q45 -41 45 -107q0 -65 -46 -105q-39 -34 -87 -34h-272q-55 0 -86 -43t-39 -43q-17 0 -17 20
q0 11 13.5 69t13.5 112q0 20 -6 66t-6 77q0 104 135 205q-77 1 -107 56q-26 49 -26 169q0 201 57 201q12 0 29.5 -43t70.5 -43h625q278 0 279 -297z" />
    <glyph glyph-name="uni05E4" unicode="&#x5e4;" horiz-adv-x="1262" 
d="M649 694q0 -65 -46 -105q-39 -34 -87 -34h-272q-55 0 -86 -43t-39 -43q-17 0 -17 20q0 11 13.5 69t13.5 112q0 20 -6 66t-6 77q0 104 135 205q-77 1 -107 56q-26 49 -26 169q0 201 57 201q12 0 29.5 -43t70.5 -43h463q258 0 357 -156q92 -145 92 -512v-377l-111 -313
h-1024l88 340h969v272q0 229 -61 303q-86 103 -373 103h-348q-95 -88 -95 -137q0 -36 36 -45q15 -5 65 -5q19 0 73.5 3.5t108.5 3.5q49 0 88 -37q45 -41 45 -107z" />
    <glyph glyph-name="uni05E5" unicode="&#x5e5;" horiz-adv-x="1210" 
d="M563 1106q0 -61 -72 -206q-70 -141 -65 -236l12 -248q67 158 183 330q106 157 200 251q-81 46 -109 77q-32 33 -32 78q0 31 16 91q24 89 73 155q40 54 56 52q21 -3 17 -25q-3 -5 -8 -20q-4 -19 176 -115q91 -48 91 -131q0 -24 -5 -57q-13 -82 -60 -170q-41 -76 -53 -74
q-21 4 -18 16q0 2 2 19t-72 63q-115 -115 -247 -336q-146 -245 -197 -440l43 -823q1 -21 -59.5 -91.5t-76.5 -70.5q-17 0 -22 14q-2 8 -2 27v1409q0 116 42 199t42 98q0 28 -62 45l-116 25q-84 21 -112 77q-19 40 -19 132q0 91 36 158q29 53 48 53q20 0 20 -21q0 -6 -3 -12
t-3 -10q0 -13 83 -30q119 -25 171 -42q64 -22 86 -82q16 -43 16 -129z" />
    <glyph glyph-name="uni05E6" unicode="&#x5e6;" horiz-adv-x="1313" 
d="M1210 340q0 -81 -53 -215l-55 -125h-996l105 340h760q17 0 17 9q0 10 -17 20l-383 217q-117 66 -117 178v192q0 62 -55 62h-160q-79 0 -109 54q-28 50 -28 171q0 201 57 201q11 0 28.5 -43t71.5 -43h107q166 0 166 -205v-197q0 -143 104 -192l144 -68l137 303
q-115 52 -141.5 87.5t-26.5 134.5q0 91 37 158q28 53 47 53q18 0 18 -21q0 -6 -2 -12t-2 -10q0 -14 58 -30q120 -34 145 -42q68 -23 93 -63q22 -35 22 -109q0 -83 -33 -177q-29 -81 -41 -81q-21 0 -21 12v19q0 16 -100 61l-133 -311q238 -107 306 -179q50 -52 50 -149z" />
    <glyph glyph-name="uni05E7" unicode="&#x5e7;" horiz-adv-x="1247" 
d="M1184 758q0 -260 -86 -367q-70 -88 -303 -170q-151 -53 -233 -112q-41 -30 -82 -80q-25 -31 -54 -31q-43 0 -43 61q0 107 58 177q96 114 360 190q195 56 235 87q82 62 82 232q0 130 -67 203q-63 70 -166 70h-629q-79 0 -109 54q-28 50 -28 171q0 201 57 201
q12 0 29.5 -43t70.5 -43h574q165 0 237 -101q97 -135 97 -499zM307 756q0 -5 -40 -69.5t-40 -164.5q0 -188 37 -457.5t37 -383.5q0 -206 -39 -346q-35 -130 -80 -130q-63 0 -63 90q0 4 7 146.5t7 296.5q0 67 -12 378t-12 343q0 134 72 240q62 92 112 92q14 0 14 -35z" />
    <glyph glyph-name="uni05E8" unicode="&#x5e8;" horiz-adv-x="1381" 
d="M1221 164q0 -23 -57 -93.5t-72 -70.5q-25 0 -25 43q0 27 34 394.5t34 463.5q0 117 -179 117h-712q-79 0 -110 54q-28 50 -28 171q0 201 58 201q10 0 28.5 -43t71.5 -43h676q278 0 279 -297z" />
    <glyph glyph-name="uni05E9" unicode="&#x5e9;" horiz-adv-x="1430" 
d="M1341 1145q0 -153 -87 -396q-36 -101 -171 -415q-102 -236 -120 -334h-734q-6 123 -79 365q-68 229 -68 358q0 164 65 305q-51 32 -66 78q-13 38 -13 129q0 90 43 157q33 52 55 52q18 0 18 -21q0 -6 -3 -11.5t-3 -10.5q0 -25 139 -72q74 -25 97 -67q18 -34 18 -117
q0 -82 -45 -166q-38 -70 -53 -70q-12 0 -12 17q0 3 2 5t2 11q0 14 -12.5 20t-100.5 35q-6 2 -16 7q-47 -109 -47 -211q0 -78 49 -230q47 -144 94 -223h21q187 301 296 682q-56 31 -74 85q-14 39 -14 128q0 90 43 157q34 52 56 52q18 0 18 -21q0 -6 -2 -11.5t-2 -10.5
q0 -25 137 -72q72 -24 95 -68q20 -35 20 -116q0 -82 -46 -166q-38 -70 -53 -70q-12 0 -12 17q0 3 2 5t2 11q0 13 -13 20q-9 4 -91 31q-116 -395 -267 -653h532q25 65 179 331q119 205 119 298q0 21 -26 27q-83 19 -111 28q-70 23 -96 71q-23 44 -23 140q0 90 43 157
q33 52 53 52q21 0 21 -21q0 -6 -3 -11.5t-3 -10.5q0 -25 139 -72q67 -23 91 -71q17 -37 17 -113z" />
    <glyph glyph-name="uni05EA" unicode="&#x5ea;" horiz-adv-x="1348" 
d="M1245 164q2 -23 -42.5 -93.5t-59.5 -70.5q-25 0 -25 43q0 16 2 427t2 431q0 117 -190 117h-592q-92 -173 -92 -324q0 -86 97 -229t97 -209q0 -121 -46 -191q-43 -65 -109 -65h-264l59 340h154q-31 34 -59 126q-25 87 -25 142q0 118 25 203q21 72 89 207h-22
q-79 0 -110 54q-28 50 -28 171q0 201 58 201q10 0 28.5 -43t71.5 -43h649q256 0 275 -297z" />
    <glyph glyph-name="uni05F0" unicode="&#x5f0;" horiz-adv-x="1217" 
d="M1144 164q0 -23 -56.5 -93.5t-72.5 -70.5q-24 0 -24 43q0 27 34.5 394.5t34.5 463.5q0 117 -127 117h-137q-79 0 -109 54q-28 50 -28 171q0 201 55 201q12 0 30 -43t71 -43h127q200 0 200 -297zM567 164q0 -23 -56.5 -93.5t-72.5 -70.5q-24 0 -24 43q0 27 34.5 394.5
t34.5 463.5q0 117 -127 117h-137q-79 0 -109 54q-28 50 -28 171q0 201 55 201q12 0 30 -43t71 -43h127q200 0 200 -297z" />
    <glyph glyph-name="uni05F1" unicode="&#x5f1;" horiz-adv-x="1257" 
d="M580 1061q0 -147 -20 -262q-21 -121 -52 -121q-28 0 -33 15v32q0 6 10.5 68.5t10.5 107.5q0 117 -166 117h-99q-79 0 -110 54q-29 50 -29 171q0 201 60 201q10 0 28.5 -43t71.5 -43h59q267 0 269 -297zM1182 164q0 -23 -56.5 -93.5t-72.5 -70.5q-24 0 -24 43
q0 27 34.5 394.5t34.5 463.5q0 117 -127 117h-137q-79 0 -109 54q-28 50 -28 171q0 201 55 201q12 0 30 -43t71 -43h127q200 0 200 -297z" />
    <glyph glyph-name="uni05F2" unicode="&#x5f2;" horiz-adv-x="1257" 
d="M580 1061q0 -147 -20 -262q-21 -121 -52 -121q-28 0 -33 15v32q0 6 10.5 68.5t10.5 107.5q0 117 -166 117h-99q-79 0 -110 54q-29 50 -29 171q0 201 60 201q10 0 28.5 -43t71.5 -43h59q267 0 269 -297zM1181 1061q0 -147 -20 -262q-21 -121 -52 -121q-28 0 -33 15v32
q0 6 10.5 68.5t10.5 107.5q0 117 -166 117h-99q-79 0 -110 54q-29 50 -29 171q0 201 60 201q10 0 28.5 -43t71.5 -43h59q267 0 269 -297z" />
    <glyph glyph-name="uni05F3" unicode="&#x5f3;" horiz-adv-x="530" 
d="M530 1280q0 -49 -47 -92l-342 -314h-141l260 394q62 94 148 94q122 0 122 -82z" />
    <glyph glyph-name="uni05F4" unicode="&#x5f4;" horiz-adv-x="946" 
d="M946 1280q0 -49 -47 -92l-342 -314h-141l260 394q62 94 147 94q123 0 123 -82zM530 1280q0 -49 -47 -92l-342 -314h-141l260 394q62 94 148 94q122 0 122 -82z" />
    <glyph glyph-name="uni2000" unicode="&#x2000;" horiz-adv-x="1024" 
 />
    <glyph glyph-name="uni2001" unicode="&#x2001;" horiz-adv-x="2048" 
 />
    <glyph glyph-name="uni2002" unicode="&#x2002;" horiz-adv-x="1024" 
 />
    <glyph glyph-name="uni2003" unicode="&#x2003;" horiz-adv-x="2048" 
 />
    <glyph glyph-name="uni2004" unicode="&#x2004;" horiz-adv-x="683" 
 />
    <glyph glyph-name="uni2005" unicode="&#x2005;" horiz-adv-x="512" 
 />
    <glyph glyph-name="uni2006" unicode="&#x2006;" horiz-adv-x="341" 
 />
    <glyph glyph-name="uni2007" unicode="&#x2007;" horiz-adv-x="1135" 
 />
    <glyph glyph-name="uni2008" unicode="&#x2008;" horiz-adv-x="592" 
 />
    <glyph glyph-name="uni2009" unicode="&#x2009;" horiz-adv-x="200" 
 />
    <glyph glyph-name="uni200A" unicode="&#x200a;" horiz-adv-x="100" 
 />
    <glyph glyph-name="uni200B" unicode="&#x200b;" 
 />
    <glyph glyph-name="uni200C" unicode="&#x200c;" 
d="M294 1019l-16 -24q-89 61 -200 72l148 -148l-32 -32l-183 183h-24l-180 -180l-32 32l145 145q-111 -10 -198 -70l-16 22q113 105 234 122l-163 163l32 32l190 -190l193 193l32 -32l-166 -166q122 -17 236 -122zM32 932q0 -32 -32 -32t-32 32t32 32t32 -32zM32 782
q0 -32 -32 -32t-32 32t32 32t32 -32zM32 632q0 -32 -32 -32t-32 32t32 32t32 -32zM32 482q0 -32 -32 -32t-32 32t32 32t32 -32zM32 332q0 -32 -32 -32t-32 32t32 32t32 -32zM32 182q0 -32 -32 -32t-32 32t32 32t32 -32zM32 32q0 -32 -32 -32t-32 32t32 32t32 -32z" />
    <glyph glyph-name="uni200D" unicode="&#x200d;" 
d="M0 1145q158 0 294 -126q0 -5 -16 -24q-109 75 -278 75q-172 0 -278 -73q-16 17 -16 22q136 126 294 126zM32 932q0 -32 -32 -32t-32 32t32 32t32 -32zM32 782q0 -32 -32 -32t-32 32t32 32t32 -32zM32 632q0 -32 -32 -32t-32 32t32 32t32 -32zM32 482q0 -32 -32 -32
t-32 32t32 32t32 -32zM32 332q0 -32 -32 -32t-32 32t32 32t32 -32zM32 182q0 -32 -32 -32t-32 32t32 32t32 -32zM32 32q0 -32 -32 -32t-32 32t32 32t32 -32z" />
    <glyph glyph-name="uni200E" unicode="&#x200e;" 
d="M80 1050l-100 -90v180z" />
    <glyph glyph-name="uni200F" unicode="&#x200f;" 
d="M20 960l-100 90l100 90v-180z" />
    <glyph glyph-name="uni2010" unicode="&#x2010;" horiz-adv-x="657" 
d="M565 416h-475v153h475v-153z" />
    <glyph glyph-name="uni2011" unicode="&#x2011;" horiz-adv-x="657" 
d="M565 416h-475v153h475v-153z" />
    <glyph glyph-name="uni202A" unicode="&#x202a;" 
d="M166 -70l-100 -90v70h-106v803h40v-763h66v70z" />
    <glyph glyph-name="uni202B" unicode="&#x202b;" 
d="M40 -90h-106v-70l-100 90l100 90v-70h66v763h40v-803z" />
    <glyph glyph-name="uni202C" unicode="&#x202c;" 
d="M90 713h-70v-763h62v-40h-164v40h62v763h-70l90 100z" />
    <glyph glyph-name="uni202D" unicode="&#x202d;" 
d="M166 1105l-100 -90v70h-211v40h211v70zM32 932q0 -32 -32 -32t-32 32t32 32t32 -32zM32 782q0 -32 -32 -32t-32 32t32 32t32 -32zM32 632q0 -32 -32 -32t-32 32t32 32t32 -32zM32 482q0 -32 -32 -32t-32 32t32 32t32 -32zM32 332q0 -32 -32 -32t-32 32t32 32t32 -32z
M32 182q0 -32 -32 -32t-32 32t32 32t32 -32zM32 32q0 -32 -32 -32t-32 32t32 32t32 -32z" />
    <glyph glyph-name="uni202E" unicode="&#x202e;" 
d="M145 1085h-211v-70l-100 90l100 90v-70h211v-40zM32 932q0 -32 -32 -32t-32 32t32 32t32 -32zM32 782q0 -32 -32 -32t-32 32t32 32t32 -32zM32 632q0 -32 -32 -32t-32 32t32 32t32 -32zM32 482q0 -32 -32 -32t-32 32t32 32t32 -32zM32 332q0 -32 -32 -32t-32 32t32 32
t32 -32zM32 182q0 -32 -32 -32t-32 32t32 32t32 -32zM32 32q0 -32 -32 -32t-32 32t32 32t32 -32z" />
    <glyph glyph-name="uni20AA" unicode="&#x20aa;" horiz-adv-x="1153" 
d="M1063 249q0 -249 -245 -249h-448v1101h149v-962h282q113 0 113 119v952h149v-961zM791 280h-151v825q0 130 -144 130h-249v-1067h-148v1206h449q102 0 169 -57q74 -61 74 -167v-870z" />
    <glyph glyph-name="Euro" unicode="&#x20ac;" horiz-adv-x="1153" 
d="M1081 47q-32 -15 -121 -38q-135 -34 -247 -34q-239 0 -400 161q-150 149 -193 389h-120l47 110h60q-2 27 -2 55t2 55h-107l47 110h72q42 250 201.5 397t394.5 147q167 0 366 -72v-321h-125l-25 186q-5 33 -30 47q-80 45 -178 45q-156 0 -259 -107q-108 -112 -138 -322
h568l-47 -110h-530q-1 -24 -1 -49q0 -31 1 -61h486l-47 -110h-428q31 -209 138.5 -323t279.5 -114q86 0 141 27q28 13 33 41l40 223h121v-332z" />
    <glyph glyph-name="minus" unicode="&#x2212;" horiz-adv-x="1706" 
d="M1452 545h-1198v133h1198v-133z" />
    <glyph glyph-name="uni2219" unicode="&#x2219;" horiz-adv-x="573" 
d="M426 686q0 -58 -41 -97.5t-98 -39.5t-97 40t-40 97t40 98t97 41t98 -41t41 -98z" />
    <glyph glyph-name="uni25CC" unicode="&#x25cc;" horiz-adv-x="1580" 
d="M1232 1045q0 -56 -55 -56q-60 0 -60 56q0 57 60 57q55 0 55 -57zM1060 1160q0 -58 -56 -58q-60 0 -60 58q0 60 60 60q56 0 56 -60zM1350 872q0 -60 -60 -60q-58 0 -58 60q0 57 60 57q58 0 58 -57zM1391 668q0 -58 -55 -58q-60 0 -60 58q0 57 60 57q55 0 55 -57zM856 1203
q0 -60 -58 -60t-58 60q0 58 58 58t58 -58zM654 1160q0 -58 -60 -58q-58 0 -58 58q0 60 58 60q60 0 60 -60zM1350 464q0 -58 -60 -58q-58 0 -58 58q0 60 58 60q60 0 60 -60zM479 1045q0 -56 -58 -56q-57 0 -57 53q0 60 57 60q58 0 58 -57zM1232 289q0 -58 -55 -58
q-57 0 -57 58q0 60 57 60q55 0 55 -60zM1060 173q0 -55 -56 -55q-57 0 -57 55q0 60 57 60q56 0 56 -60zM364 872q0 -60 -56 -60q-60 0 -60 60q0 57 58 57t58 -57zM323 668q0 -58 -58 -58q-60 0 -60 58q0 57 60 57q58 0 58 -57zM856 135q0 -60 -58 -60t-58 60q0 58 58 58
t58 -58zM364 464q0 -58 -58 -58t-58 58q0 60 58 60t58 -60zM654 178q0 -60 -60 -60q-58 0 -58 55q0 60 58 60q60 0 60 -55zM479 289q0 -58 -58 -58q-57 0 -57 58q0 60 57 60q58 0 58 -60z" />
    <glyph glyph-name="uni05C6" unicode="&#x5c6;" horiz-adv-x="646" 
d="M526 1018h-168q-118 -134 -114 -264l12 -414h270v-340h-399v715q0 163 119 303q-73 3 -101 57q-26 50 -26 168q0 201 57 201q12 0 29.5 -43t70.5 -43h250v-340z" />
    <glyph glyph-name="underdot" 
d="M195 -727q0 -39 -29.5 -68.5t-69.5 -29.5q-39 0 -67.5 29t-28.5 69t28 68.5t68 28.5t69.5 -28.5t29.5 -68.5z" />
    <glyph glyph-name="metegright" 
d="M1167 -649h-117v495h117v-495z" />
    <glyph glyph-name="metegleft" 
d="M117 -649h-117v495h117v-495z" />
    <glyph glyph-name="uniFB1D" unicode="&#xfb1d;" horiz-adv-x="691" 
d="M580 1061q0 -147 -20 -262q-21 -121 -52 -121q-28 0 -33 15v32q0 6 10.5 68.5t10.5 107.5q0 117 -166 117h-99q-79 0 -110 54q-29 50 -29 171q0 201 60 201q10 0 28.5 -43t71.5 -43h59q267 0 269 -297zM422 196q0 -38 -28.5 -66t-66.5 -28t-65 28t-27 66q0 37 27 63.5
t65 26.5t66.5 -26.5t28.5 -63.5z" />
    <glyph glyph-name="uniFB1E" unicode="&#xfb1e;" 
d="M496 1686q-28 -76 -102 -121q-68 -41 -146 -41t-146 41q-74 45 -102 121v92q51 -140 248 -140t248 140v-92z" />
    <glyph glyph-name="uniFB1F" unicode="&#xfb1f;" horiz-adv-x="1257" 
d="M1181 1061q0 -147 -20 -262q-21 -121 -52 -121q-28 0 -33 15v32q0 6 10.5 68.5t10.5 107.5q0 117 -166 117h-99q-79 0 -110 54q-29 50 -29 171q0 201 60 201q10 0 28.5 -43t71.5 -43h59q267 0 269 -297zM580 1061q0 -147 -20 -262q-21 -121 -52 -121q-28 0 -33 15v32
q0 6 10.5 68.5t10.5 107.5q0 117 -166 117h-99q-79 0 -110 54q-29 50 -29 171q0 201 60 201q10 0 28.5 -43t71.5 -43h59q267 0 269 -297zM1124 443h-449v114h449v-114zM673 443h-449v114h449v-114z" />
    <glyph glyph-name="uniFB20" unicode="&#xfb20;" horiz-adv-x="1213" 
d="M1150 1133q0 -66 -41 -164q-63 -151 -86 -228q-29 -97 -44 -241q-15 -137 -28 -174q-35 -102 -85 -144q-74 -62 -255 -92l-543 -90l50 348l288 47q12 21 12 46q0 49 -82 196.5t-82 239.5q0 71 40 135q-83 22 -110 78q-19 40 -19 131q0 92 36 158q28 53 48 53q18 0 18 -21
q0 -6 -2 -12t-2 -10q0 -14 58 -30q120 -34 145 -42q68 -23 93 -63q21 -35 21 -109q0 -82 -33 -158q-27 -63 -40 -63q-23 0 -23 14v18q0 10 -41 18q-48 9 -96 17q-15 -30 -15 -64q0 -61 85 -194.5t85 -212.5q0 -55 -30 -108l153 18q136 16 184 48q45 30 79 120l63 170
q23 63 52 111q22 38 22 41q0 23 -54 44l-139 46t-95 72q-23 44 -23 139q0 91 43 158q34 53 55 53q18 0 18 -21q0 -6 -2 -12t-2 -10q0 -26 137 -72q187 -63 187 -184z" />
    <glyph glyph-name="uniFB29" unicode="&#xfb29;" horiz-adv-x="1706" 
d="M246 433h551v551h116v-551h551v-117h-1218v117z" />
    <glyph glyph-name="uniFB2A" unicode="&#xfb2a;" horiz-adv-x="1430" 
d="M1320 1639q0 -37 -28.5 -64.5t-66.5 -27.5t-65 27t-27 65q0 37 27 64t65 27t66.5 -27t28.5 -64zM1341 1145q0 -153 -87 -396q-36 -101 -171 -415q-102 -236 -120 -334h-734q-6 123 -79 365q-68 229 -68 358q0 164 65 305q-51 32 -66 78q-13 38 -13 129q0 90 43 157
q33 52 55 52q18 0 18 -21q0 -6 -3 -11.5t-3 -10.5q0 -25 139 -72q74 -25 97 -67q18 -34 18 -117q0 -82 -45 -166q-38 -70 -53 -70q-12 0 -12 17q0 3 2 5t2 11q0 14 -12.5 20t-100.5 35q-6 2 -16 7q-47 -109 -47 -211q0 -78 49 -230q47 -144 94 -223h21q187 301 296 682
q-56 31 -74 85q-14 39 -14 128q0 90 43 157q34 52 56 52q18 0 18 -21q0 -6 -2 -11.5t-2 -10.5q0 -25 137 -72q72 -24 95 -68q20 -35 20 -116q0 -82 -46 -166q-38 -70 -53 -70q-12 0 -12 17q0 3 2 5t2 11q0 13 -13 20q-9 4 -91 31q-116 -395 -267 -653h532q25 65 179 331
q119 205 119 298q0 21 -26 27q-83 19 -111 28q-70 23 -96 71q-23 44 -23 140q0 90 43 157q33 52 53 52q21 0 21 -21q0 -6 -3 -11.5t-3 -10.5q0 -25 139 -72q67 -23 91 -71q17 -37 17 -113z" />
    <glyph glyph-name="uniFB2B" unicode="&#xfb2b;" horiz-adv-x="1430" 
d="M380 1639q0 -37 -28.5 -64.5t-66.5 -27.5t-65 27t-27 65q0 37 27 64t65 27t66.5 -27t28.5 -64zM1341 1145q0 -153 -87 -396q-36 -101 -171 -415q-102 -236 -120 -334h-734q-6 123 -79 365q-68 229 -68 358q0 164 65 305q-51 32 -66 78q-13 38 -13 129q0 90 43 157
q33 52 55 52q18 0 18 -21q0 -6 -3 -11.5t-3 -10.5q0 -25 139 -72q74 -25 97 -67q18 -34 18 -117q0 -82 -45 -166q-38 -70 -53 -70q-12 0 -12 17q0 3 2 5t2 11q0 14 -12.5 20t-100.5 35q-6 2 -16 7q-47 -109 -47 -211q0 -78 49 -230q47 -144 94 -223h21q187 301 296 682
q-56 31 -74 85q-14 39 -14 128q0 90 43 157q34 52 56 52q18 0 18 -21q0 -6 -2 -11.5t-2 -10.5q0 -25 137 -72q72 -24 95 -68q20 -35 20 -116q0 -82 -46 -166q-38 -70 -53 -70q-12 0 -12 17q0 3 2 5t2 11q0 13 -13 20q-9 4 -91 31q-116 -395 -267 -653h532q25 65 179 331
q119 205 119 298q0 21 -26 27q-83 19 -111 28q-70 23 -96 71q-23 44 -23 140q0 90 43 157q33 52 53 52q21 0 21 -21q0 -6 -3 -11.5t-3 -10.5q0 -25 139 -72q67 -23 91 -71q17 -37 17 -113z" />
    <glyph glyph-name="uniFB2C" unicode="&#xfb2c;" horiz-adv-x="1430" 
d="M1341 1145q0 -153 -87 -396q-36 -101 -171 -415q-102 -236 -120 -334h-734q-6 123 -79 365q-68 229 -68 358q0 164 65 305q-51 32 -66 78q-13 38 -13 129q0 90 43 157q33 52 55 52q18 0 18 -21q0 -6 -3 -11.5t-3 -10.5q0 -25 139 -72q74 -25 97 -67q18 -34 18 -117
q0 -82 -45 -166q-38 -70 -53 -70q-12 0 -12 17q0 3 2 5t2 11q0 14 -12.5 20t-100.5 35q-6 2 -16 7q-47 -109 -47 -211q0 -78 49 -230q47 -144 94 -223h21q187 301 296 682q-56 31 -74 85q-14 39 -14 128q0 90 43 157q34 52 56 52q18 0 18 -21q0 -6 -2 -11.5t-2 -10.5
q0 -25 137 -72q72 -24 95 -68q20 -35 20 -116q0 -82 -46 -166q-38 -70 -53 -70q-12 0 -12 17q0 3 2 5t2 11q0 13 -13 20q-9 4 -91 31q-116 -395 -267 -653h532q25 65 179 331q119 205 119 298q0 21 -26 27q-83 19 -111 28q-70 23 -96 71q-23 44 -23 140q0 90 43 157
q33 52 53 52q21 0 21 -21q0 -6 -3 -11.5t-3 -10.5q0 -25 139 -72q67 -23 91 -71q17 -37 17 -113zM1320 1639q0 -37 -28.5 -64.5t-66.5 -27.5t-65 27t-27 65q0 37 27 64t65 27t66.5 -27t28.5 -64zM935 678q0 -40 -29.5 -68t-69.5 -28t-68 28t-28 68t28 68t68 28t69.5 -28
t29.5 -68z" />
    <glyph glyph-name="uniFB2D" unicode="&#xfb2d;" horiz-adv-x="1430" 
d="M1341 1145q0 -153 -87 -396q-36 -101 -171 -415q-102 -236 -120 -334h-734q-6 123 -79 365q-68 229 -68 358q0 164 65 305q-51 32 -66 78q-13 38 -13 129q0 90 43 157q33 52 55 52q18 0 18 -21q0 -6 -3 -11.5t-3 -10.5q0 -25 139 -72q74 -25 97 -67q18 -34 18 -117
q0 -82 -45 -166q-38 -70 -53 -70q-12 0 -12 17q0 3 2 5t2 11q0 14 -12.5 20t-100.5 35q-6 2 -16 7q-47 -109 -47 -211q0 -78 49 -230q47 -144 94 -223h21q187 301 296 682q-56 31 -74 85q-14 39 -14 128q0 90 43 157q34 52 56 52q18 0 18 -21q0 -6 -2 -11.5t-2 -10.5
q0 -25 137 -72q72 -24 95 -68q20 -35 20 -116q0 -82 -46 -166q-38 -70 -53 -70q-12 0 -12 17q0 3 2 5t2 11q0 13 -13 20q-9 4 -91 31q-116 -395 -267 -653h532q25 65 179 331q119 205 119 298q0 21 -26 27q-83 19 -111 28q-70 23 -96 71q-23 44 -23 140q0 90 43 157
q33 52 53 52q21 0 21 -21q0 -6 -3 -11.5t-3 -10.5q0 -25 139 -72q67 -23 91 -71q17 -37 17 -113zM380 1639q0 -37 -28.5 -64.5t-66.5 -27.5t-65 27t-27 65q0 37 27 64t65 27t66.5 -27t28.5 -64zM935 678q0 -40 -29.5 -68t-69.5 -28t-68 28t-28 68t28 68t68 28t69.5 -28
t29.5 -68z" />
    <glyph glyph-name="uniFB2E" unicode="&#xfb2e;" horiz-adv-x="1221" 
d="M1143 213q0 -96 -65 -177q-55 -69 -91 -69q-18 0 -18 29q0 4 13 24t13 35q0 49 -66 124l-102 102l-501 501q-56 -83 -56 -147q0 -87 123 -234.5t123 -234.5q0 -71 -54 -118.5t-132 -47.5h-267l11 51q131 17 131 88q0 35 -59.5 146.5t-59.5 179.5q0 157 190 366l-49 50
q-90 90 -121 148q-36 70 -36 169q0 96 63 177q54 69 90 69q19 0 19 -29q0 -3 -13.5 -23t-13.5 -34q0 -50 66 -124l102 -101l299 -299l143 180q-74 56 -99 105q-17 35 -17 91q0 97 71 172q57 62 97 62q18 0 18 -19q0 -4 -5 -9t-5 -19q0 -49 108 -127q129 -94 129 -238
q0 -100 -44 -154q-34 -42 -74 -42q-22 0 -40 34q-30 55 -83 101l-150 -187l252 -254q90 -91 122 -148q38 -70 38 -169zM829 -268h-449v114h449v-114z" />
    <glyph glyph-name="uniFB2F" unicode="&#xfb2f;" horiz-adv-x="1221" 
d="M1143 213q0 -96 -65 -177q-55 -69 -91 -69q-18 0 -18 29q0 4 13 24t13 35q0 49 -66 124l-102 102l-501 501q-56 -83 -56 -147q0 -87 123 -234.5t123 -234.5q0 -71 -54 -118.5t-132 -47.5h-267l11 51q131 17 131 88q0 35 -59.5 146.5t-59.5 179.5q0 157 190 366l-49 50
q-90 90 -121 148q-36 70 -36 169q0 96 63 177q54 69 90 69q19 0 19 -29q0 -3 -13.5 -23t-13.5 -34q0 -50 66 -124l102 -101l299 -299l143 180q-74 56 -99 105q-17 35 -17 91q0 97 71 172q57 62 97 62q18 0 18 -19q0 -4 -5 -9t-5 -19q0 -49 108 -127q129 -94 129 -238
q0 -100 -44 -154q-34 -42 -74 -42q-22 0 -40 34q-30 55 -83 101l-150 -187l252 -254q90 -91 122 -148q38 -70 38 -169zM698 -553q0 -40 -29 -68t-70 -28q-39 0 -67.5 28t-28.5 68q0 59 90 285h-213v114h449v-114h-221q90 -246 90 -285z" />
    <glyph glyph-name="uniFB30" unicode="&#xfb30;" horiz-adv-x="1221" 
d="M1143 213q0 -96 -65 -177q-55 -69 -91 -69q-18 0 -18 29q0 4 13 24t13 35q0 49 -66 124l-102 102l-501 501q-56 -83 -56 -147q0 -87 123 -234.5t123 -234.5q0 -71 -54 -118.5t-132 -47.5h-267l11 51q131 17 131 88q0 35 -59.5 146.5t-59.5 179.5q0 157 190 366l-49 50
q-90 90 -121 148q-36 70 -36 169q0 96 63 177q54 69 90 69q19 0 19 -29q0 -3 -13.5 -23t-13.5 -34q0 -50 66 -124l102 -101l299 -299l143 180q-74 56 -99 105q-17 35 -17 91q0 97 71 172q57 62 97 62q18 0 18 -19q0 -4 -5 -9t-5 -19q0 -49 108 -127q129 -94 129 -238
q0 -100 -44 -154q-34 -42 -74 -42q-22 0 -40 34q-30 55 -83 101l-150 -187l252 -254q90 -91 122 -148q38 -70 38 -169zM806 98q0 -40 -29.5 -68t-69.5 -28t-68 28t-28 68t28 68t68 28t69.5 -28t29.5 -68z" />
    <glyph glyph-name="uniFB31" unicode="&#xfb31;" horiz-adv-x="1312" 
d="M1307 340l-179 -340h-1099l164 340h876l-16 567q-4 111 -172 111h-625q-79 0 -109 54q-28 50 -28 171q0 201 57 201q12 0 29.5 -43t70.5 -43h586q281 0 281 -297v-721h164zM700 678q0 -40 -29.5 -68t-69.5 -28t-68 28t-28 68t28 68t68 28t69.5 -28t29.5 -68z" />
    <glyph glyph-name="uniFB32" unicode="&#xfb32;" horiz-adv-x="799" 
d="M686 248q0 -248 -29 -248q-20 0 -22 27q-5 47 -63 232q-54 169 -54 284q0 64 11.5 202.5t11.5 161.5q0 111 -185 111h-100q-79 0 -109 54q-28 50 -28 171q0 201 57 201q12 0 29.5 -43t70.5 -43h62q278 0 278 -297q0 -51 -10 -103.5t-10 -134.5q0 -59 45 -266.5t45 -308.5
zM545 340l-113 -340h-377l86 340h404zM335 678q0 -40 -29.5 -68t-69.5 -28t-68 28t-28 68t28 68t68 28t69.5 -28t29.5 -68z" />
    <glyph glyph-name="uniFB33" unicode="&#xfb33;" horiz-adv-x="1380" 
d="M1280 1188q0 -72 -37.5 -119.5t-87.5 -50.5l39 -854q1 -22 -55 -93t-72 -71q-27 0 -27 43q0 112 37 975h-833q-79 0 -110 54q-28 50 -28 171q0 201 58 201q10 0 28.5 -43t71.5 -43h881q59 0 97 -47t38 -123zM735 678q0 -40 -29.5 -68t-69.5 -28t-68 28t-28 68t28 68
t68 28t69.5 -28t29.5 -68z" />
    <glyph glyph-name="uniFB34" unicode="&#xfb34;" horiz-adv-x="1343" 
d="M1280 1188q0 -75 -39.5 -122.5t-91.5 -47.5h-8l53 -854q1 -22 -55 -93t-72 -71q-27 0 -27 43q0 176 21 975h-817q-79 0 -110 54q-28 50 -28 171q0 201 58 201q10 0 28.5 -43t71.5 -43h881q59 0 97 -47t38 -123zM330 319q0 -201 -31 -233q-21 -22 -69 -52q-53 -34 -74 -34
q-39 0 -39 41q0 25 15.5 52.5t32.5 54.5q23 54 23 163q0 35 -3 96t-3 117q0 65 41 136q39 67 66 67q26 0 26 -18q0 -8 -9 -38.5t-9 -68.5q0 -30 16.5 -109t16.5 -174zM750 678q0 -40 -29.5 -68t-69.5 -28t-68 28t-28 68t28 68t68 28t69.5 -28t29.5 -68z" />
    <glyph glyph-name="uniFB35" unicode="&#xfb35;" horiz-adv-x="690" 
d="M318 678q0 -40 -29.5 -68t-69.5 -28t-68 28t-28 68t28 68t68 28t69.5 -28t29.5 -68zM567 164q0 -23 -56.5 -93.5t-72.5 -70.5q-24 0 -24 43q0 27 34.5 394.5t34.5 463.5q0 117 -127 117h-137q-79 0 -109 54q-28 50 -28 171q0 201 55 201q12 0 30 -43t71 -43h127
q200 0 200 -297z" />
    <glyph glyph-name="uniFB36" unicode="&#xfb36;" horiz-adv-x="813" 
d="M698 1157q0 -86 -38 -159q-34 -64 -60 -64q-13 0 -13 16q0 4 2 6t2 13q0 32 -141 49q-49 -88 -49 -133q0 -28 46 -252.5t46 -253.5q0 -113 -44 -249q-43 -130 -73 -130q-22 0 -22 23q0 -2 16.5 49t16.5 88q0 21 -45 242t-45 257q0 185 94 365l-35 2q-122 7 -162.5 48
t-40.5 161q0 64 33.5 136.5t64.5 72.5q21 0 21 -21q0 -6 -3 -11.5t-3 -10.5q0 -28 198 -43q234 -18 234 -201zM225 678q0 -40 -29.5 -68t-69.5 -28t-68 28t-28 68t28 68t68 28t69.5 -28t29.5 -68z" />
    <glyph glyph-name="uniFB38" unicode="&#xfb38;" horiz-adv-x="1343" 
d="M1253 719q0 -150 -149 -719h-938q2 138 -22 329q-25 198 -25 316q0 200 121 381q-77 33 -103 82q-22 40 -22 127q0 90 44 157q35 52 56 52t21 -21q0 -6 -3.5 -11.5t-3.5 -10.5q0 -13 47 -28q86 -30 132 -50q69 -31 91.5 -65.5t22.5 -112.5q0 -82 -45 -166
q-38 -70 -53 -70q-12 0 -12 17q0 3 2 5t2 11q0 14 -117 57q-88 -152 -88 -258q0 -87 38 -220q41 -145 44 -181h805q76 231 76 328q0 172 -89 267q-79 85 -198 85q-110 0 -165 -87q-44 -68 -44 -169q0 -15 3 -45t3 -39q0 -18 -13 -36.5t-28 -18.5q-57 0 -57 141q0 63 42 195
q48 150 58 235q3 21 3 44q0 25 -4 61.5t-4 47.5q0 23 9 33q7 7 39 7q77 0 173 -31q121 -38 190 -105q100 -98 136 -207q27 -79 27 -204q0 -20 -1 -60.5t-1 -62.5zM1010 678q0 -40 -29.5 -68t-69.5 -28t-68 28t-28 68t28 68t68 28t69.5 -28t29.5 -68z" />
    <glyph glyph-name="uniFB39" unicode="&#xfb39;" horiz-adv-x="741" 
d="M630 1061q0 -147 -20 -262q-21 -121 -52 -121q-28 0 -33 15v32q0 6 10.5 68.5t10.5 107.5q0 117 -166 117h-99q-79 0 -110 54q-29 50 -29 171q0 201 60 201q10 0 28.5 -43t71.5 -43h59q267 0 269 -297zM383 776q0 -40 -29.5 -68t-69.5 -28t-68 28t-28 68t28 68t68 28
t69.5 -28t29.5 -68z" />
    <glyph glyph-name="uniFB3A" unicode="&#xfb3a;" horiz-adv-x="1380" 
d="M1280 1188q0 -72 -37.5 -119.5t-87.5 -50.5l39 -1512q1 -21 -55 -91t-72 -70q-27 0 -27 43q0 52 15 738q16 738 22 892h-833q-79 0 -110 54q-28 50 -28 171q0 201 58 201q10 0 28.5 -43t71.5 -43h881q59 0 97 -47t38 -123zM728 678q0 -40 -29.5 -68t-69.5 -28t-68 28
t-28 68t28 68t68 28t69.5 -28t29.5 -68z" />
    <glyph glyph-name="uniFB3B" unicode="&#xfb3b;" horiz-adv-x="1343" 
d="M1198 678q0 -392 -168 -544q-148 -134 -500 -134h-501l164 340h579q171 0 265 84q98 88 98 254q0 340 -363 340h-516q-79 0 -109 54q-28 50 -28 171q0 201 57 201q12 0 29.5 -43t70.5 -43h459q246 0 352 -150q111 -156 111 -530zM750 678q0 -40 -29.5 -68t-69.5 -28
t-68 28t-28 68t28 68t68 28t69.5 -28t29.5 -68z" />
    <glyph glyph-name="uniFB3C" unicode="&#xfb3c;" horiz-adv-x="1343" 
d="M1225 782q0 -222 -219 -381q-143 -103 -221 -218l-80 -148q-31 -55 -84 -55q-37 0 -64 27q-31 30 -31 77q0 69 67 149q84 102 241 168q199 86 263 176q42 59 42 168q0 119 -54 193q-56 78 -149 78h-633q-127 0 -172 50q-39 44 -39 159v321q0 117 41 200q26 54 76 102
q41 39 41 48q0 35 -79 58.5t-79 64.5q0 58 34 110q29 44 44 44q16 0 16 -10q0 -2 -2 -8.5t-2 -8.5q0 -9 44 -24q56 -19 82 -40q44 -35 44 -91q0 -30 -25 -67q-34 -49 -48 -91q-25 -77 -25 -207v-182q0 -48 13 -65q17 -21 69 -21h672q152 0 172 -127l37 -234q8 -52 8 -215z
M790 678q0 -40 -29.5 -68t-69.5 -28t-68 28t-28 68t28 68t68 28t69.5 -28t29.5 -68z" />
    <glyph glyph-name="uniFB3E" unicode="&#xfb3e;" horiz-adv-x="1343" 
d="M1229 719q0 -209 -125 -719h-655l75 340h574q37 143 37 301q0 166 -123 272.5t-318 106.5q-168 0 -297 -120t-129 -267q0 -96 18.5 -175t18.5 -139q0 -197 -33 -233q-78 -86 -116 -86q-39 0 -39 41q0 25 14 53q33 66 33 232q0 32 -5 122.5t-5 147.5q0 184 133 317
q17 18 69 58l-77 26q-31 15 -68 31q-51 32 -67 78q-13 38 -13 129q0 89 63 157q48 52 74 52q19 0 19 -21q0 -6 -2 -11.5t-2 -10.5q0 -25 137 -72q71 -24 96 -61t25 -123q0 -43 -13 -80l93 26q65 22 65 56q0 44 -13.5 113t-13.5 92q0 66 63 66q73 0 179 -44q119 -50 186 -123
q143 -153 143 -447q0 -18 -1 -47v-38zM799 678q0 -40 -29.5 -68t-69.5 -28t-68 28t-28 68t28 68t68 28t69.5 -28t29.5 -68z" />
    <glyph glyph-name="uniFB40" unicode="&#xfb40;" horiz-adv-x="752" 
d="M662 272q0 -124 -41 -272h-566l62 340h407q-6 198 -6 293q0 63 11.5 157t11.5 117q0 111 -185 111h-100q-79 0 -109 54q-28 50 -28 171q0 201 57 201q12 0 29.5 -43t70.5 -43h62q278 0 278 -297q0 -51 -12 -116.5t-12 -147.5q0 -63 35 -252.5t35 -272.5zM318 678
q0 -40 -29.5 -68t-69.5 -28t-68 28t-28 68t28 68t68 28t69.5 -28t29.5 -68z" />
    <glyph glyph-name="uniFB41" unicode="&#xfb41;" horiz-adv-x="1343" 
d="M373 1018q-90 -74 -135 -185q-31 -79 -31 -143q0 -154 93 -260q97 -111 243 -111h209q162 0 272.5 104.5t110.5 254.5q0 176 -74 253q-83 87 -289 87h-399zM1198 678q0 -312 -127 -495q-145 -210 -434 -210q-255 0 -382 172q-114 152 -114 418q0 303 152 455h-49
q-79 0 -110 54q-28 50 -28 171q0 201 58 201q10 0 28.5 -43t71.5 -43h471q228 0 347 -178q116 -174 116 -502zM755 678q0 -40 -29.5 -68t-69.5 -28t-68 28t-28 68t28 68t68 28t69.5 -28t29.5 -68z" />
    <glyph glyph-name="uniFB43" unicode="&#xfb43;" horiz-adv-x="1262" 
d="M1182 -494q0 -21 -57 -91t-72 -70q-25 0 -25 43q0 27 35 722t35 791q0 117 -178 117h-592q-95 -88 -95 -137q0 -36 36 -45q15 -5 65 -5q19 0 73.5 3.5t108.5 3.5q49 0 88 -37q45 -41 45 -107q0 -65 -46 -105q-39 -34 -87 -34h-272q-55 0 -86 -43t-39 -43q-17 0 -17 20
q0 11 13.5 69t13.5 112q0 20 -6 66t-6 77q0 104 135 205q-77 1 -107 56q-26 49 -26 169q0 201 57 201q12 0 29.5 -43t70.5 -43h625q278 0 279 -297zM961 697q0 -40 -29.5 -68t-69.5 -28t-68 28t-28 68t28 68t68 28t69.5 -28t29.5 -68z" />
    <glyph glyph-name="uniFB44" unicode="&#xfb44;" horiz-adv-x="1262" 
d="M966 678q0 -40 -29.5 -68t-69.5 -28t-68 28t-28 68t28 68t68 28t69.5 -28t29.5 -68zM649 694q0 -65 -46 -105q-39 -34 -87 -34h-272q-55 0 -86 -43t-39 -43q-17 0 -17 20q0 11 13.5 69t13.5 112q0 20 -6 66t-6 77q0 104 135 205q-77 1 -107 56q-26 49 -26 169
q0 201 57 201q12 0 29.5 -43t70.5 -43h463q258 0 357 -156q92 -145 92 -512v-377l-111 -313h-1024l88 340h969v272q0 229 -61 303q-86 103 -373 103h-348q-95 -88 -95 -137q0 -36 36 -45q15 -5 65 -5q19 0 73.5 3.5t108.5 3.5q49 0 88 -37q45 -41 45 -107z" />
    <glyph glyph-name="uniFB46" unicode="&#xfb46;" horiz-adv-x="1343" 
d="M1210 340q0 -81 -53 -215l-55 -125h-996l105 340h760q17 0 17 9q0 10 -17 20l-383 217q-117 66 -117 178v192q0 62 -55 62h-160q-79 0 -109 54q-28 50 -28 171q0 201 57 201q11 0 28.5 -43t71.5 -43h107q166 0 166 -205v-197q0 -143 104 -192l144 -68l137 303
q-115 52 -141.5 87.5t-26.5 134.5q0 91 37 158q28 53 47 53q18 0 18 -21q0 -6 -2 -12t-2 -10q0 -14 58 -30q120 -34 145 -42q68 -23 93 -63q22 -35 22 -109q0 -83 -33 -177q-29 -81 -41 -81q-21 0 -21 12v19q0 16 -100 61l-133 -311q238 -107 306 -179q50 -52 50 -149z
M318 678q0 -40 -29.5 -68t-69.5 -28t-68 28t-28 68t28 68t68 28t69.5 -28t29.5 -68z" />
    <glyph glyph-name="uniFB47" unicode="&#xfb47;" horiz-adv-x="1247" 
d="M1184 758q0 -260 -86 -367q-70 -88 -303 -170q-151 -53 -233 -112q-41 -30 -82 -80q-25 -31 -54 -31q-43 0 -43 61q0 107 58 177q96 114 360 190q195 56 235 87q82 62 82 232q0 130 -67 203q-63 70 -166 70h-629q-79 0 -109 54q-28 50 -28 171q0 201 57 201
q12 0 29.5 -43t70.5 -43h574q165 0 237 -101q97 -135 97 -499zM307 756q0 -5 -40 -69.5t-40 -164.5q0 -188 37 -457.5t37 -383.5q0 -206 -39 -346q-35 -130 -80 -130q-63 0 -63 90q0 4 7 146.5t7 296.5q0 67 -12 378t-12 343q0 134 72 240q62 92 112 92q14 0 14 -35z
M735 697q0 -40 -29.5 -68t-69.5 -28t-68 28t-28 68t28 68t68 28t69.5 -28t29.5 -68z" />
    <glyph glyph-name="uniFB48" unicode="&#xfb48;" horiz-adv-x="1331" 
d="M1221 164q0 -23 -57 -93.5t-72 -70.5q-25 0 -25 43q0 27 34 394.5t34 463.5q0 117 -179 117h-712q-79 0 -110 54q-28 50 -28 171q0 201 58 201q10 0 28.5 -43t71.5 -43h676q278 0 279 -297zM755 678q0 -40 -29.5 -68t-69.5 -28t-68 28t-28 68t28 68t68 28t69.5 -28
t29.5 -68z" />
    <glyph glyph-name="uniFB49" unicode="&#xfb49;" horiz-adv-x="1430" 
d="M1341 1145q0 -153 -87 -396q-36 -101 -171 -415q-102 -236 -120 -334h-734q-6 123 -79 365q-68 229 -68 358q0 164 65 305q-51 32 -66 78q-13 38 -13 129q0 90 43 157q33 52 55 52q18 0 18 -21q0 -6 -3 -11.5t-3 -10.5q0 -25 139 -72q74 -25 97 -67q18 -34 18 -117
q0 -82 -45 -166q-38 -70 -53 -70q-12 0 -12 17q0 3 2 5t2 11q0 14 -12.5 20t-100.5 35q-6 2 -16 7q-47 -109 -47 -211q0 -78 49 -230q47 -144 94 -223h21q187 301 296 682q-56 31 -74 85q-14 39 -14 128q0 90 43 157q34 52 56 52q18 0 18 -21q0 -6 -2 -11.5t-2 -10.5
q0 -25 137 -72q72 -24 95 -68q20 -35 20 -116q0 -82 -46 -166q-38 -70 -53 -70q-12 0 -12 17q0 3 2 5t2 11q0 13 -13 20q-9 4 -91 31q-116 -395 -267 -653h532q25 65 179 331q119 205 119 298q0 21 -26 27q-83 19 -111 28q-70 23 -96 71q-23 44 -23 140q0 90 43 157
q33 52 53 52q21 0 21 -21q0 -6 -3 -11.5t-3 -10.5q0 -25 139 -72q67 -23 91 -71q17 -37 17 -113zM935 678q0 -40 -29.5 -68t-69.5 -28t-68 28t-28 68t28 68t68 28t69.5 -28t29.5 -68z" />
    <glyph glyph-name="uniFB4A" unicode="&#xfb4a;" horiz-adv-x="1370" 
d="M1245 164q2 -23 -42.5 -93.5t-59.5 -70.5q-25 0 -25 43q0 16 2 427t2 431q0 117 -190 117h-592q-92 -173 -92 -324q0 -86 97 -229t97 -209q0 -121 -46 -191q-43 -65 -109 -65h-264l59 340h154q-31 34 -59 126q-25 87 -25 142q0 118 25 203q21 72 89 207h-22
q-79 0 -110 54q-28 50 -28 171q0 201 58 201q10 0 28.5 -43t71.5 -43h649q256 0 275 -297zM819 678q0 -40 -29.5 -68t-69.5 -28t-68 28t-28 68t28 68t68 28t69.5 -28t29.5 -68z" />
    <glyph glyph-name="uniFB4B" unicode="&#xfb4b;" horiz-adv-x="690" 
d="M371 1638q0 -37 -28.5 -64.5t-66.5 -27.5t-65 27t-27 65q0 37 27 64t65 27t66.5 -27t28.5 -64zM567 164q0 -23 -56.5 -93.5t-72.5 -70.5q-24 0 -24 43q0 27 34.5 394.5t34.5 463.5q0 117 -127 117h-137q-79 0 -109 54q-28 50 -28 171q0 201 55 201q12 0 30 -43t71 -43
h127q200 0 200 -297z" />
    <glyph glyph-name="uniFB4C" unicode="&#xfb4c;" horiz-adv-x="1312" 
d="M1307 340l-179 -340h-1099l164 340h876l-16 567q-4 111 -172 111h-625q-79 0 -109 54q-28 50 -28 171q0 201 57 201q12 0 29.5 -43t70.5 -43h586q281 0 281 -297v-721h164zM840 1546h-415v115h415v-115z" />
    <glyph glyph-name="uniFB4D" unicode="&#xfb4d;" horiz-adv-x="1262" 
d="M1198 678q0 -392 -168 -544q-148 -134 -500 -134h-501l164 340h579q171 0 265 84q98 88 98 254q0 340 -363 340h-516q-79 0 -109 54q-28 50 -28 171q0 201 57 201q12 0 29.5 -43t70.5 -43h459q246 0 352 -150q111 -156 111 -530zM840 1546h-415v115h415v-115z" />
    <glyph glyph-name="uniFB4E" unicode="&#xfb4e;" horiz-adv-x="1262" 
d="M840 1546h-415v115h415v-115zM649 694q0 -65 -46 -105q-39 -34 -87 -34h-272q-55 0 -86 -43t-39 -43q-17 0 -17 20q0 11 13.5 69t13.5 112q0 20 -6 66t-6 77q0 104 135 205q-77 1 -107 56q-26 49 -26 169q0 201 57 201q12 0 29.5 -43t70.5 -43h463q258 0 357 -156
q92 -145 92 -512v-377l-111 -313h-1024l88 340h969v272q0 229 -61 303q-86 103 -373 103h-348q-95 -88 -95 -137q0 -36 36 -45q15 -5 65 -5q19 0 73.5 3.5t108.5 3.5q49 0 88 -37q45 -41 45 -107z" />
    <glyph glyph-name="uniFB4F" unicode="&#xfb4f;" horiz-adv-x="1221" 
d="M420 1693q0 -83 -92 -187l-83.5 -98t-29.5 -50q0 -50 66 -124l102 -101l299 -299l143 180q-74 56 -99 105q-17 35 -17 91q0 97 71 172q57 62 97 62q18 0 18 -19q0 -4 -5 -9t-5 -19q0 -49 108 -127q129 -94 129 -238q0 -100 -44 -154q-34 -42 -74 -42q-22 0 -40 34
q-30 55 -83 101l-150 -187l252 -254q90 -91 122 -148q38 -70 38 -169q0 -96 -65 -177q-55 -69 -91 -69q-18 0 -18 29q0 4 13 24t13 35q0 49 -66 124l-702 702q-90 90 -121 148q-36 70 -36 169q0 96 63 177l70 87t37 81q0 80 -162 156q56 32 115 93q56 57 73 97
q154 -84 154 -196z" />
    <glyph glyph-name="uniFEFF" unicode="&#xfeff;" 
 />
    <glyph glyph-name="finalkafsheva" horiz-adv-x="1380" 
d="M1280 1188q0 -72 -37.5 -119.5t-87.5 -50.5l39 -1512q1 -21 -55 -91t-72 -70q-27 0 -27 43q0 52 15 738q16 738 22 892h-833q-79 0 -110 54q-28 50 -28 171q0 201 58 201q10 0 28.5 -43t71.5 -43h881q59 0 97 -47t38 -123zM713 681q0 -38 -28.5 -66t-66.5 -28t-65 28
t-27 66q0 37 27 63.5t65 26.5t66.5 -26.5t28.5 -63.5zM713 368q0 -37 -29 -64.5t-66 -27.5q-38 0 -65 27.5t-27 64.5q0 38 27 64t65 26t66.5 -26t28.5 -64z" />
    <glyph glyph-name="finalkafqamats" horiz-adv-x="1380" 
d="M1280 1188q0 -72 -37.5 -119.5t-87.5 -50.5l39 -1512q1 -21 -55 -91t-72 -70q-27 0 -27 43q0 52 15 738q16 738 22 892h-833q-79 0 -110 54q-28 50 -28 171q0 201 58 201q10 0 28.5 -43t71.5 -43h881q59 0 97 -47t38 -123zM654 393q0 -40 -29 -68t-70 -28q-39 0 -67.5 28
t-28.5 68q0 59 90 285h-213v114h449v-114h-221q90 -246 90 -285z" />
    <glyph glyph-name="holamvav" horiz-adv-x="690" 
d="M545 1640q0 -39 -29.5 -68.5t-69.5 -29.5q-39 0 -67.5 29t-28.5 69t28 68.5t68 28.5t69.5 -28.5t29.5 -68.5zM567 164q0 -23 -56.5 -93.5t-72.5 -70.5q-24 0 -24 43q0 27 34.5 394.5t34.5 463.5q0 117 -127 117h-137q-79 0 -109 54q-28 50 -28 171q0 201 55 201
q12 0 30 -43t71 -43h127q200 0 200 -297z" />
    <glyph glyph-name="vavshindot" horiz-adv-x="690" 
d="M-114 1640q0 -39 -29.5 -68.5t-69.5 -29.5q-39 0 -67.5 29t-28.5 69t28 68.5t68 28.5t69.5 -28.5t29.5 -68.5zM567 164q0 -23 -56.5 -93.5t-72.5 -70.5q-24 0 -24 43q0 27 34.5 394.5t34.5 463.5q0 117 -127 117h-137q-79 0 -109 54q-28 50 -28 171q0 201 55 201
q12 0 30 -43t71 -43h127q200 0 200 -297z" />
    <glyph glyph-name="lamedholam" horiz-adv-x="1493" 
d="M1375 782q0 -222 -219 -381q-143 -103 -221 -218l-80 -148q-31 -55 -84 -55q-37 0 -64 27q-31 30 -31 77q0 69 67 149q84 102 241 168q199 86 263 176q42 59 42 168q0 119 -54 193q-56 78 -149 78h-633q-127 0 -172 50q-39 44 -39 159v321q0 117 41 200q26 54 76 102
q41 39 41 48q0 35 -79 58.5t-79 64.5q0 58 34 110q29 44 44 44q16 0 16 -10q0 -2 -2 -8.5t-2 -8.5q0 -9 44 -24q56 -19 82 -40q44 -35 44 -91q0 -30 -25 -67q-34 -49 -48 -91q-25 -77 -25 -207v-182q0 -48 13 -65q17 -21 69 -21h672q152 0 172 -127l37 -234q8 -52 8 -215z
M121 1640q0 -39 -29.5 -68.5t-69.5 -29.5q-39 0 -67.5 29t-28.5 69t28 68.5t68 28.5t69.5 -28.5t29.5 -68.5z" />
    <glyph glyph-name="lameddageshholam" horiz-adv-x="1493" 
d="M1375 782q0 -222 -219 -381q-143 -103 -221 -218l-80 -148q-31 -55 -84 -55q-37 0 -64 27q-31 30 -31 77q0 69 67 149q84 102 241 168q199 86 263 176q42 59 42 168q0 119 -54 193q-56 78 -149 78h-633q-127 0 -172 50q-39 44 -39 159v321q0 117 41 200q26 54 76 102
q41 39 41 48q0 35 -79 58.5t-79 64.5q0 58 34 110q29 44 44 44q16 0 16 -10q0 -2 -2 -8.5t-2 -8.5q0 -9 44 -24q56 -19 82 -40q44 -35 44 -91q0 -30 -25 -67q-34 -49 -48 -91q-25 -77 -25 -207v-182q0 -48 13 -65q17 -21 69 -21h672q152 0 172 -127l37 -234q8 -52 8 -215z
M121 1640q0 -39 -29.5 -68.5t-69.5 -29.5q-39 0 -67.5 29t-28.5 69t28 68.5t68 28.5t69.5 -28.5t29.5 -68.5zM940 678q0 -40 -29.5 -68t-69.5 -28t-68 28t-28 68t28 68t68 28t69.5 -28t29.5 -68z" />
    <glyph glyph-name="gimelrafe" horiz-adv-x="741" 
d="M686 248q0 -248 -29 -248q-20 0 -22 27q-5 47 -63 232q-54 169 -54 284q0 64 11.5 202.5t11.5 161.5q0 111 -185 111h-100q-79 0 -109 54q-28 50 -28 171q0 201 57 201q12 0 29.5 -43t70.5 -43h62q278 0 278 -297q0 -51 -10 -103.5t-10 -134.5q0 -59 45 -266.5t45 -308.5
zM545 340l-113 -340h-377l86 340h404zM590 1546h-415v115h415v-115z" />
    <glyph glyph-name="daletrafe" horiz-adv-x="1380" 
d="M1280 1188q0 -72 -37.5 -119.5t-87.5 -50.5l39 -854q1 -22 -55 -93t-72 -71q-27 0 -27 43q0 112 37 975h-833q-79 0 -110 54q-28 50 -28 171q0 201 58 201q10 0 28.5 -43t71.5 -43h881q59 0 97 -47t38 -123zM840 1546h-415v115h415v-115z" />
    <glyph glyph-name="herafe" horiz-adv-x="1380" 
d="M1280 1188q0 -75 -39.5 -122.5t-91.5 -47.5h-8l53 -854q1 -22 -55 -93t-72 -71q-27 0 -27 43q0 176 21 975h-817q-79 0 -110 54q-28 50 -28 171q0 201 58 201q10 0 28.5 -43t71.5 -43h881q59 0 97 -47t38 -123zM330 319q0 -201 -31 -233q-21 -22 -69 -52q-53 -34 -74 -34
q-39 0 -39 41q0 25 15.5 52.5t32.5 54.5q23 54 23 163q0 35 -3 96t-3 117q0 65 41 136q39 67 66 67q26 0 26 -18q0 -8 -9 -38.5t-9 -68.5q0 -30 16.5 -109t16.5 -174zM840 1546h-415v115h415v-115z" />
    <glyph glyph-name="tavrafe" horiz-adv-x="1348" 
d="M1245 164q2 -23 -42.5 -93.5t-59.5 -70.5q-25 0 -25 43q0 16 2 427t2 431q0 117 -190 117h-592q-92 -173 -92 -324q0 -86 97 -229t97 -209q0 -121 -46 -191q-43 -65 -109 -65h-264l59 340h154q-31 34 -59 126q-25 87 -25 142q0 118 25 203q21 72 89 207h-22
q-79 0 -110 54q-28 50 -28 171q0 201 58 201q10 0 28.5 -43t71.5 -43h649q256 0 275 -297zM840 1546h-415v115h415v-115z" />
    <glyph glyph-name="hiriqmem" horiz-adv-x="1329" 
d="M358 1018q-118 -134 -114 -264l12 -414h877l-17 567q-2 69 -39 92q-30 19 -106 19h-613zM1231 0h-1104v715q0 163 119 303q-73 3 -101 57q-26 50 -26 168q0 201 57 201q12 0 29.5 -43t70.5 -43h676q279 0 279 -297v-1061zM1162 -244q0 -38 -28.5 -66t-66.5 -28t-65 28
t-27 66q0 37 27 63.5t65 26.5t66.5 -26.5t28.5 -63.5z" />
    <glyph glyph-name="hatafsegolmeteg" horiz-adv-x="2" 
d="M713 -649h-117v495h117v-495zM970 -244q0 -38 -27.5 -66t-66.5 -28q-37 0 -63.5 28t-26.5 66q0 37 26.5 63.5t63.5 26.5q39 0 66.5 -26.5t27.5 -63.5zM970 -557q0 -37 -28 -64.5t-66 -27.5q-36 0 -63 27.5t-27 64.5q0 38 26.5 64t63.5 26q39 0 66.5 -26t27.5 -64z
M518 -246q0 -37 -28 -64.5t-66 -27.5q-37 0 -63.5 27.5t-26.5 64.5q0 38 26.5 65t63.5 27q38 0 66 -27t28 -65zM182 -246q0 -37 -27 -64.5t-65 -27.5t-64 27.5t-26 64.5q0 39 26 65.5t64 26.5t65 -26.5t27 -65.5zM350 -557q0 -37 -27 -64.5t-65 -27.5q-37 0 -63.5 27.5
t-26.5 64.5q0 38 26.5 64t63.5 26q39 0 65.5 -26t26.5 -64z" />
    <glyph glyph-name="hatafpatahmeteg" horiz-adv-x="2" 
d="M671 -649h-117v495h117v-495zM928 -244q0 -38 -27.5 -66t-66.5 -28q-37 0 -63.5 28t-26.5 66q0 37 26.5 63.5t63.5 26.5q39 0 66.5 -26.5t27.5 -63.5zM928 -557q0 -37 -28 -64.5t-66 -27.5q-36 0 -63 27.5t-27 64.5q0 38 26.5 64t63.5 26q39 0 66.5 -26t27.5 -64z
M449 -268h-449v114h449v-114z" />
    <glyph glyph-name="hatafqamatsmeteg" horiz-adv-x="2" 
d="M671 -649h-117v495h117v-495zM928 -244q0 -38 -27.5 -66t-66.5 -28q-37 0 -63.5 28t-26.5 66q0 37 26.5 63.5t63.5 26.5q39 0 66.5 -26.5t27.5 -63.5zM928 -557q0 -37 -28 -64.5t-66 -27.5q-36 0 -63 27.5t-27 64.5q0 38 26.5 64t63.5 26q39 0 66.5 -26t27.5 -64z
M317 -553q0 -40 -28.5 -68t-69.5 -28q-40 0 -68 28t-28 68q0 45 88 285h-211v114h449v-114h-222q90 -246 90 -285z" />
    <glyph glyph-name="uni034F" unicode="&#x34f;" 
 />
    <glyph glyph-name="uni0307" unicode="&#x307;" 
d="M245 1640q0 -39 -29.5 -68.5t-69.5 -29.5q-39 0 -67.5 29t-28.5 69t28 68.5t68 28.5t69.5 -28.5t29.5 -68.5z" />
    <glyph glyph-name="dotbelowcomb" unicode="&#x323;" 
 />
    <glyph glyph-name="uni0308" unicode="&#x308;" 
d="M647 1313q0 -47 -32 -81t-78 -34t-79.5 34.5t-33.5 80.5q0 43 35 77.5t78 34.5q46 0 78 -33t32 -79zM223 1313q0 -46 -33 -80.5t-79 -34.5q-44 0 -77.5 34t-33.5 79t33.5 79.5t77.5 34.5q46 0 79 -33t33 -79z" />
    <glyph glyph-name="hebrewthousand" 
d="M195 1640q0 -39 -29.5 -68.5t-69.5 -29.5q-39 0 -67.5 29t-28.5 69t28 68.5t68 28.5t69.5 -28.5t29.5 -68.5zM595 1640q0 -39 -29.5 -68.5t-69.5 -29.5q-39 0 -67.5 29t-28.5 69t28 68.5t68 28.5t69.5 -28.5t29.5 -68.5z" />
    <glyph glyph-name="uni05A2" unicode="&#x5a2;" 
d="M241 -607q0 -47 -48 -47q-47 0 -47 47v151q-94 14 -126 93q-20 51 -20 162q0 47 47 47t47 -47q0 -90 10 -115q19 -50 94 -50q79 0 99 50q10 24 10 115q0 47 47 47t47 -47q0 -116 -23 -167q-35 -78 -137 -90v-149z" />
    <glyph glyph-name="uni05C5" unicode="&#x5c5;" 
d="M379 -389q-96 -59 -150 -153q-54 94 -151 153q97 56 151 152q54 -96 150 -152z" />
    <glyph glyph-name="uni05C7" unicode="&#x5c7;" 
d="M0 -154h449v-114h-221q90 -422 90 -461q0 -40 -29 -68t-70 -28q-39 0 -67.5 28t-28.5 68q0 59 90 461h-213v114z" />
  </font>
</defs>
</svg>
